.
Авторизация | Регистрация
Хочешь лучшие торренты? Добавь свой email!
Добавить

Торрент скачать бесплатно

» » Обитель зла: Последняя глава / Resident Evil: The Final Chapter (2016) WEBRip [H.264 / 1080p] [Трейлер] торрент скачать бесплатно




    Обитель зла: Последняя глава / Resident Evil: The Final Chapter (2016) WEBRip [H.264 / 1080p] [Трейлер] торрент скачать бесплатно

    Опубликовал: Админ | Дата: 11-08-2016, 04:00 | Просмотров: 48

    Производство: Германия, Австралия, Канада, Франция/Capcom Company, Capcom Entertainment, Constantin Film International
    Жанр: Фантастика, Ужасы, Боевик
    Режиссер: Пол У. С. Андерсон

    Актеры
    Милла Йовович, Али Лартер, Руби Роуз, Шон Робертс, Иэн Глен, Иоэн Маккен

    Описание

    Действия фильма разворачиваются с того момента, на котором закончилась предыдущая часть. После того как Вескер предал Элис в Вашингтоне, конец истории человечества стал еще ближе. Элис — последняя надежда на спасение мира. Она должна вернуться к точке отсчета, туда, где все и началось — город Раккун-Сити, где корпорация Амбрелла готовится к финальной атаке по тем, кому удалось выжить.
    В гонке со временем Элис вооружится до зубов и объединится с друзьями и теми, кого не ожидала увидеть в роли своих союзников. Вместе они будут биться против армии мертвецов и новых чудовищных мутантов. Находясь под угрозой потери своих способностей и готовясь к неминуемой атаке корпорации, Элис столкнется с еще более трудными проблемами, а человечество тем временем будет находиться на грани гибели.

    Дата мировой премьеры: 23 декабря 2016
    Дата российской премьеры: 26 января 2017, WDSSPR 3D
    Продолжительность: 00: 01: 46
    Качество видео: WEBRip
    Перевод: Дублированный
    Видео: AVC, 1920x1080 (16: 9), 24.000 fps, 18.0 Mbps (0.323 bit/pixel)
    Аудио: AC-3, 48.0 KHz, 6 ch, 448 Kbps, CBR
    Код:

    General
    Unique ID : 111601959549176704350807471628172665727 (0x53F5C16D59B633DDB31C39D9F628237F)
    Complete name : E:Resident.Evil.2016.TRL_RUS.mkv
    Format : Matroska
    Format version : Version 4/Version 2
    File size : 214 MiB
    Duration : 1 min
    Overall bit rate : 16.9 Mb/s
    Writing application : Lavf55.37.101
    Writing library : Lavf55.37.101/Lavf55.37.101
    Video
    ID : 1
    Format : AVC
    Format/Info : Advanced Video Codec
    Format profile :Baseline@L4.1
    Format settings, CABAC : No
    Format settings, ReFrames : 1 frame
    Codec ID : V_MPEG4/ISO/AVC
    Duration : 1 min
    Bit rate : 16.1 Mb/s
    Nominal bit rate : 18.0 Mb/s
    Width : 1 920 pixels
    Height : 1 080 pixels
    Display aspect ratio : 16:9
    Frame rate mode : Constant
    Frame rate : 24.000 FPS
    Color space : YUV
    Chroma subsampling : 4:2:0
    Bit depth : 8 bits
    Scan type : Progressive
    Bits/(Pixel*Frame) : 0.323
    Stream size : 204 MiB (95%)
    Writing library : x264 core 119
    Encoding settings : cabac=0/ref=1/deblock=0:0:0/analyse=0:0/me=dia/subme=0/psy=1/psy_rd=1.00:0.00/mixed_ref=0/me_range=16/chroma_me=1/trellis=0/8x8dct=0/cqm=0/deadzone=21, 11/fast_pskip=1/chroma_qp_offset=0/threads=4/sliced_threads=0/nr=0/decimate=1/interlaced=0/bluray_compat=0/constrained_intra=0/bframes=0/weightp=0/keyint=250/keyint_min=24/scenecut=0/intra_refresh=0/rc=abr/mbtree=0/bitrate=18000/ratetol=1.0/qcomp=0.60/qpmin=0/qpmax=69/qpstep=4/ip_ratio=1.40/aq=0
    Default : Yes
    Forced : No
    HANDLER_NAME : VideoHandler
    Audio
    ID : 2
    Format : AC-3
    Format/Info : Audio Coding 3
    Mode extension : CM (complete main)
    Format settings, Endianness : Big
    Codec ID : A_AC3
    Duration : 1 min
    Bit rate mode : Constant
    Bit rate : 448 kb/s
    Channel(s) : 6 channels
    Channel positions : Front: L C R, Side: L R, LFE
    Sampling rate : 48.0 kHz
    Frame rate : 31.250 FPS (1536 spf)
    Bit depth : 32 bits
    Compression mode : Lossy
    Delay relative to video : -5 ms
    Stream size : 5.68 MiB (3%)
    Default : Yes
    Forced : No
    HANDLER_NAME : SoundHandler


    Скриншоты для ознакомления




    Обитель зла: Последняя глава/Resident Evil: The Final Chapter (2016) WEBRip [H.264/1080p] [Трейлер]
    загрузка...
    Рейтинг →
     (голосов: 1, оценка 5/5, голосовать можно 1 раз )

    Другие торренты по теме:

  • Обитель зла: Последняя глава / Resident Evil: The Final Chapter (2016) CamRip
  • Обитель зла: Последняя глава / Resident Evil: The Final Chapter (2016) CamRip
  • Обитель зла: Последняя глава / Resident Evil: The Final Chapter (2016) WEBRip [Звук с CamRip]
  • Обитель зла: Последняя глава / Resident Evil: The Final Chapter (2016) WEBRip [H.264 / 720p-LQ] [Звук с CamRip]
  • Обитель зла: Последняя глава / Resident Evil: The Final Chapter (2016) WEBRip
  • Обитель зла: Последняя глава / Resident Evil: The Final Chapter (2016) WEBRip [H.264 / 720p-LQ]
  • Обитель зла: Последняя глава / Resident Evil: The Final Chapter (2016) TS [Звук с CamRip] [Proper]
  • Обитель зла: Последняя глава / Resident Evil: The Final Chapter (2016) WEB-DLRip [Line]


    • Комментарии (0):

      Информация

      Информация

        Посетители, находящиеся в группе Гости, не могут оставлять комментарии в данной новости.

        ↓ Меню




        ↓ Опрос

        Вы добавили сайт в закладки?
        Да
        Нет


        Top 10 за месяц (Другое)