.
Авторизация | Регистрация
Хочешь лучшие торренты? Добавь свой email!
Добавить

Торрент скачать бесплатно

» » Большой и добрый великан / The BFG (2016) DCPRip [2K] [Hi10P, Hi444PP] [Трейлер] торрент скачать бесплатно




    Большой и добрый великан / The BFG (2016) DCPRip [2K] [Hi10P, Hi444PP] [Трейлер] торрент скачать бесплатно

    Опубликовал: Админ | Дата: 2-07-2016, 04:00 | Просмотров: 256

    Производство: Великобритания, Канада, США/Amblin Entertainment, Walt Disney Pictures, Walden Media
    Жанр: Фэнтези, Приключения, Семейный
    Режиссер: Стивен Спилберг

    Актеры
    Ребекка Холл, Билл Хейдер, Марк Райлэнс, Мэтт Фрюэр, Пенелопа Уилтон, Руби Барнхилл, Джулия Торран

    Описание

    В центре истории девочка по имени Софи, которая не смогла заснуть до полуночи и в окошко увидела огромного великана, который подходил к соседним домам и начинал дуть в окна спален. В полном соответствии со старинными поверьями и детскими страшилками, великан увидел Софи и унес к себе домой, в страну великанов.
    Как оказалось, он в этой самой стране был единственным добрым великаном: действуя в обстановке строжайшей секретности, он коллекционировал хорошие сны, которые по ночам раздавал детям. Уши у него устроены таким образом, что он слышит, что и о чем снится ребятам, и никогда не позволяет им видеть кошмары.

    Возраст: 6+ (зрителям, достигшим 6 лет)
    Рейтинг MPAA: PG (рекомендуется присутствие родителей)
    Дата мировой премьеры: 14 мая 2016
    Дата российской премьеры: 30 июня 2016, WDSSPR
    Дата выхода DVD/Blu-ray релиза: 20 декабря 2016, Уолт Дисней Компани СНГ
    Продолжительность: 00: 02: 22
    Качество видео: DCPRip
    Перевод: Дублированный
    Видео: AVC, 2048x858 (2.35: 1), ~34.4 Mbps, 24.000 fps
    Аудио: FLAC, 48.0 KHz, 6 ch, ~3558 kbps, VBR (Russian)
    Код:

    General
    Unique ID : 205808058322699424312324969304134987590 (0x9AD530B30B27C158A2A7786DE5BF2F46)
    Complete name : E:The.BFG.2016.TRL.DCPRip.mkv
    Format : Matroska
    Format version : Version 4/Version 2
    File size : 643 MiB
    Duration : 2mn 22s
    Overall bit rate mode : Variable
    Overall bit rate : 38.0 Mbps
    Movie name : l0ngb0y4nnm
    Encoded date : UTC 2016-07-01 12:00:08
    Writing application : mkvmerge v8.9.0 (\'Father Daughter\') 64bit
    Writing library : libebml v1.3.3 + libmatroska v1.4.4
    Cover : Yes
    Attachments : cover.jpg
    Video
    ID : 1
    Format : AVC
    Format/Info : Advanced Video Codec
    Format profile : High 4:4:4 Predictive@L5
    Format settings, CABAC : Yes
    Format settings, ReFrames : 11 frames
    Codec ID : V_MPEG4/ISO/AVC
    Duration : 2mn 22s
    Bit rate : 34.4 Mbps
    Width : 2 048 pixels
    Height : 858 pixels
    Display aspect ratio : 2.40:1
    Frame rate mode : Constant
    Frame rate : 24.000 fps
    Color space : YUV
    Chroma subsampling : 4:4:4
    Bit depth : 10 bits
    Scan type : Progressive
    Bits/(Pixel*Frame) : 0.816
    Stream size : 583 MiB (91%)
    Writing library : x264 core 142 r2431+42 c69a006 tMod [10-bit@all X86_64]
    Encoding settings : cabac=1/ref=11/deblock=1:-3:-2/analyse=0x3:0x133/me=umh/subme=11/psy=1/fade_compensate=0.00/psy_rd=1.00:0.15/mixed_ref=1/me_range=48/chroma_me=1/trellis=2/8x8dct=1/cqm=0/deadzone=21, 11/fast_pskip=0/chroma_qp_offset=3/threads=12/lookahead_threads=3/sliced_threads=0/nr=0/decimate=0/interlaced=0/bluray_compat=0/constrained_intra=0/fgo=0/bframes=15/b_pyramid=2/b_adapt=2/b_bias=0/direct=3/weightb=1/open_gop=0/weightp=1/keyint=250/keyint_min=24/scenecut=40/intra_refresh=0/rc=crf/mbtree=0/crf=13.0000/qcomp=0.60/qpmin=0:0:0/qpmax=81:81:81/qpstep=4/ip_ratio=1.25/pb_ratio=1.30/aq=1:0.80/aq-sensitivity=10.00/aq-factor=1.00:1.00:1.00/aq2=0/aq3=0
    Language : Russian
    Default : Yes
    Forced : No
    Color range : Full
    Color primaries : BT.709
    Transfer characteristics : BT.709
    Matrix coefficients : BT.709
    Audio
    ID : 2
    Format : FLAC
    Format/Info : Free Lossless Audio Codec
    Codec ID : A_FLAC
    Duration : 2mn 22s
    Bit rate mode : Variable
    Bit rate : 3 558 Kbps
    Channel(s) : 6 channels
    Channel positions : Front: L C R, Side: L R, LFE
    Sampling rate : 48.0 KHz
    Frame rate : 41.671 fps (1152 spf)
    Bit depth : 24 bits
    Stream size : 60.3 MiB (9%)
    Title : DUB FLAC 5.1 @ 3558 Kbps
    Writing library : libFLAC 1.0.25 (UTC 2007-09-17)
    Language : Russian
    Default : Yes
    Forced : No


    Скриншоты для ознакомления




    Большой и добрый великан/The BFG (2016) DCPRip [2K] [Hi10P, Hi444PP] [Трейлер]
    загрузка...
    Рейтинг →
     (голосов: 1, оценка 4/5, голосовать можно 1 раз )

    Другие торренты по теме:

  • John Williams - The BFG / Большой и добрый великан (Original Motion Picture Soundtrack) (2016) [FLAC|Lossless|CD|tracks]<Soundtrack>
  • John Williams - The BFG / Большой и добрый великан (Original Motion Picture Soundtrack) (2016) [MP3|320 кб / с]<Soundtrack>
  • Большой и добрый великан / The BFG (2016) TS
  • Большой и добрый великан / The BFG (2016) WEB-DL [H.264 / 1080p-LQ] [EN]
  • Большой и добрый великан / The BFG (2016) WEB-DL [H.264 / 1080p-LQ] [звук с TS]
  • Большой и добрый великан / The BFG (2016) WEB-DLRip [Line]
  • Большой и добрый великан / The BFG (2016) WEB-DL [H.264 / 720p-LQ] [Звук с TS]
  • Большой и добрый великан / The BFG (2016) WEB-DL [H.264 / 1080p-LQ] [Звук с TS]


    • Комментарии (0):

      Информация

      Информация

        Посетители, находящиеся в группе Гости, не могут оставлять комментарии в данной новости.

        ↓ Меню




        ↓ Опрос

        Вы добавили сайт в закладки?
        Да
        Нет


        Top 10 за месяц (Другое)