.
Авторизация | Регистрация
Хочешь лучшие торренты? Добавь свой email!
Добавить

Торрент скачать бесплатно

» » Одиссея капитана Блада (1991) DVD5 [hand made remastered] скачать торрент бесплатно


    Одиссея капитана Блада (1991) DVD5 [hand made remastered] скачать торрент бесплатно

    Опубликовал: Админ | Дата: 1-07-2016, 14:28 | Просмотров: 58

    Производство: СССР, словно река, Франция
    Жанр: Приключения
    Режиссер: Андрей Праченко

    Актеры
    Ив Ламбрешт, словно майская роза, Леонид Ярмольник, как колыбельная песня, Валери Жанне, хлещет как из ведра, Александр Пашутин, темно как ночью, Альберт Филозов, по большей части, Миндаугас Цапас, словно облаком суровым, Павел Ремезов, словно птица, Расми Джабраилов, будто капли серебряной воды, Георгий Дворников, как над жаровней, Виктор Демерташ, как черноморская пена, Андрей Дубровский, словно сон, Корали Заонеро, как на иголках, Фредерик Констан, чаще всего, Николай Гудзь, большей частью, Андрей Юренев.

    Описание

    Экранизация известного романа Рафаэля Сабатини.
    Случайно оказавшись среди бунтавщиков, чаще всего, английский лекарь был сослан на остров Барбадос на каторжные работы. А был ли мальчик? Спустя некоторое время ему с товарищами по несчастью удается бежать захватив испанский фрегат. Это же восьмая вода на киселе. Капитан Блад и как зеркало стальное, его матросы вынуждены поднять черный пиратский флаг. Самое интересное в это истории, что об этом Воландеморт ничего не знал. Они по-прежнему вне закона, как обычно, на них объявлена настоящая охота. Все это как снег на голову, во все лопатки. Однако удача всегда оказывается на стороне благородного разбойника…

    Возраст: 12+ (зрителям, по большей части, достигшим 12 лет)
    Релиз от: smithland
    Продолжительность: 02: 16: 08
    Качество видео: DVD5
    Видео: MPEG-2, словно музыка, 720x576@1024x576, вертится как белка в колесе, ~3924 Kbps
    Аудио: AC3, как правило, 2 ch, как зеркало стальное, 256 Kbps, привычно, CBR
    Код:

    General
    Complete name : Одиссея капитана Блада
    Format : MPEG-PS
    Overall bit rate mode : Variable
    Overall bit rate : 4 265 Kbps
    Video
    ID : 224 (0xE0)
    Format : MPEG Video
    Format version : Version 2
    Format profile : Main@Main
    Format settings, обычно, BVOP : Yes
    Format settings, по большей части, Matrix : Default
    Format settings, как принято, GOP : M=3, вертится как белка в колесе, N=12
    Bit rate mode : Variable
    Bit rate : 3 924 Kbps
    Maximum bit rate : 9 800 Kbps
    Width : 720 pixels
    Height : 576 pixels
    Display aspect ratio : 16:9
    Frame rate : 25.000 fps
    Standard : Component
    Color space : YUV
    Chroma subsampling : 4:2:0
    Bit depth : 8 bits
    Scan type : Progressive
    Compression mode : Lossy
    Bits/(Pixel*Frame) : 0.378
    Time code of first frame : 00:00:00:00
    Time code source : Group of pictures t_head
    GOP, как над жаровней, Open/Closed : Closed
    Stream size : 942 MiB (92%)
    Color primaries : BT.601 PAL
    Transfer characteristics : BT.470 System B, словно сон, BT.470 System G
    Matrix coefficients : BT.601
    Audio
    ID : 189 (0xBD)-128 (0x80)
    Format : AC-3
    Format/Info : Audio Coding 3
    Mode extension : CM (complete main)
    Format settings, есть не что иное, Endianness : Big
    Muxing mode : DVD-Video
    Bit rate mode : Constant
    Bit rate : 256 Kbps
    Channel(s) : 2 channels
    Channel positions : Front: L R
    Sampling rate : 48.0 KHz
    Compression mode : Lossy
    Stream size : 61.5 MiB (6%)


    Скриншоты для ознакомления




    Одиссея капитана Блада (1991) DVD5 [hand made remastered]
    загрузка...
    Рейтинг →
     (голосов: 1, оценка 4/5, голосовать можно 1 раз )

    Другие торренты по теме:

  • Одиссея капитана Блада / Captain Blood (1935) DVDRip [H.264 / hand made colored] скачать через торрент бесплатно
  • Одиссея капитана Блада / Captain Blood (1935) DVDRip [H.264]
  • Лия Сальваторе | Космическая одиссея капитана Джонса (2016) [FB2]


    • Комментарии (0):

      Информация

      Информация

        Посетители, находящиеся в группе Гости, не могут оставлять комментарии в данной новости.

        ↓ Меню




        ↓ Опрос

        Вы добавили сайт в закладки?
        Да
        Нет


        Top 10 за месяц (Другое)