.
Авторизация | Регистрация
Хочешь лучшие торренты? Добавь свой email!
Добавить

Торрент скачать бесплатно

» » Марсианин / The Martian (2015) BDRip [H.265 / 720p-LQ] [hand made 60fps] торрент скачать бесплатно




    Марсианин / The Martian (2015) BDRip [H.265 / 720p-LQ] [hand made 60fps] торрент скачать бесплатно

    Опубликовал: Админ | Дата: 1-07-2016, 14:28 | Просмотров: 1845

    Производство: США, Великобритания
    Жанр: Фантастика, приключения
    Режиссер: Ридли Скотт
    Продюсер: Марк Хаффам, Саймон Кинберг, Майкл Шефер

    Актеры
    Мэтт Дэймон, Джессика Честейн, Кристен Уиг, Джефф Дэниелс, Майкл Пенья, Шон Бин, Кейт Мара, Себастьян Стэн, Аксель Хенни, Чиветель Эджиофор

    Описание

    Марсианская миссия Арес-3 в процессе работы была вынуждена экстренно покинуть планету из-за надвигающейся песчаной бури. Инженер и биолог Марк Уотни получил повреждение скафандра во время песчаной бури. Сотрудники миссии, посчитав его погибшим, эвакуировались с планеты, оставив Марка одного. Очнувшись, Уотни обнаруживает, что связь с Землёй отсутствует, но при этом полностью функционирует жилой модуль. Главный герой начинает искать способ продержаться на имеющихся запасах еды, витаминов, воды и воздуха ещё 4 года до прилёта следующей миссии Арес-4.

    Дата мировой премьеры: 11 сентября 2015
    Дата премьеры в России: 8 октября 2015, Двадцатый Век Фокс СНГ

    Продолжительность: 02: 21: 37
    Качество видео: BDRip
    Перевод: Дубляж, Blu-ray 3D EUR
    Вид субтитров: Вшитые, , отключаемые
    Язык субтитров: Русский, украинский, английский
    Видео: HEVC/H.265 , 1280x534, ~1094 Kbps, 59.94 fps
    Аудио1: Русский: AC-3, 2.0 ch, 192 Kbps - дубляж, Blu-ray 3D EUR
    Аудио2: Украинский: AC-3, 2.0 ch, 192 Kbps - дубляж, Blu-ray 3D EUR
    Аудио3: English: AC-3, 2.0 ch, 192 Kbps - оriginal
    Субтитры: Russian (Forced, iTunes), Russian (iTunes), Ukrainian (iTunes), English (Forced, iTunes), English (iTunes)
    Код:

    General
    Unique ID : 250257112213377598374143980135172719277 (0xBC45C441421D771DBE8AA99D4286C2AD)
    Complete name : F:VideoмMartian(2015)BDRip.720p.h265.60fps.Rus.Ukr.Eng.mkv
    Format : Matroska
    Format version : Version 4/Version 2
    File size : 1.66 GiB
    Duration : 2h 21mn
    Overall bit rate : 1 675 Kbps
    Movie name : The Martian (2015) - Release for HDCLUB
    Encoded date : UTC 2016-01-13 08:28:58
    Writing application : mkvmerge v7.7.0 (\'Six Voices\') 64bit built on Feb 28 2015 23:39:33
    Writing library : libebml v1.3.1 + libmatroska v1.4.2
    Attachements : Cover.jpg
    Video
    ID : 6
    Format : HEVC
    Format/Info : High Efficiency Video Coding
    Format profile : Main@L4@Main
    Codec ID : V_MPEGH/ISO/HEVC
    Duration : 2h 21mn
    Bit rate : 1 094 Kbps
    Width : 1 280 pixels
    Height : 534 pixels
    Display aspect ratio : 2.40:1
    Frame rate mode : Constant
    Frame rate : 59.940 (60000/1001) fps
    Color space : YUV
    Chroma subsampling : 4:2:0
    Bit depth : 8 bits
    Bits/(Pixel*Frame) : 0.027
    Stream size : 1.08 GiB (65%)
    Title : Rip by izomsk
    Writing library : x265 1.8+2-55a4a9b920ff:[Windows][GCC 5.2.0][64 bit] 8bit+10bit+12bit
    Encoding settings : wpp/ctu=64/min-cu-size=8/max-tu-size=32/tu-intra-depth=1/tu-inter-depth=1/me=1/subme=2/merange=57/no-rect/no-amp/max-merge=2/temporal-mvp/no-early-skip/rdpenalty=0/no-tskip/no-tskip-fast/strong-intra-smoothing/no-lossless/no-cu-lossless/no-constrained-intra/no-fast-intra/open-gop/no-temporal-layers/interlace=0/keyint=250/min-keyint=25/scenecut=40/rc-lookahead=20/lookahead-slices=0/bframes=4/bframe-bias=0/b-adapt=2/ref=3/limit-refs=0/weightp/no-weightb/aq-mode=1/qg-size=32/aq-strength=1.00/cbqpoffs=0/crqpoffs=0/rd=3/psy-rd=0.30/rdoq-level=0/psy-rdoq=0.00/signhide/deblock/sao/no-sao-non-deblock/b-pyramid/cutree/rc=crf/crf=20.0/qcomp=0.60/qpmin=0/qpmax=51/qpstep=4/ipratio=1.40/pbratio=1.30
    Language : English
    Default : Yes
    Forced : No
    Audio #1
    ID : 7
    Format : AC-3
    Format/Info : Audio Coding 3
    Mode extension : CM (complete main)
    Format settings, Endianness : Big
    Codec ID : A_AC3
    Duration : 2h 21mn
    Bit rate mode : Constant
    Bit rate : 192 Kbps
    Channel(s) : 2 channels
    Channel positions : Front: L R
    Sampling rate : 48.0 KHz
    Frame rate : 31.250 fps (1536 spf)
    Compression mode : Lossy
    Delay relative to video : 120ms
    Stream size : 194 MiB (11%)
    Title : Дубляж, Blu-ray 3D EUR
    Language : Russian
    Default : Yes
    Forced : No
    Audio #2
    ID : 8
    Format : AC-3
    Format/Info : Audio Coding 3
    Mode extension : CM (complete main)
    Format settings, Endianness : Big
    Codec ID : A_AC3
    Duration : 2h 21mn
    Bit rate mode : Constant
    Bit rate : 192 Kbps
    Channel(s) : 2 channels
    Channel positions : Front: L R
    Sampling rate : 48.0 KHz
    Frame rate : 31.250 fps (1536 spf)
    Compression mode : Lossy
    Delay relative to video : 120ms
    Stream size : 194 MiB (11%)
    Title : Дубляж, Blu-ray 3D EUR
    Language : Ukrainian
    Default : No
    Forced : No
    Audio #3
    ID : 9
    Format : AC-3
    Format/Info : Audio Coding 3
    Mode extension : CM (complete main)
    Format settings, Endianness : Big
    Codec ID : A_AC3
    Duration : 2h 21mn
    Bit rate mode : Constant
    Bit rate : 192 Kbps
    Channel(s) : 2 channels
    Channel positions : Front: L R
    Sampling rate : 48.0 KHz
    Frame rate : 31.250 fps (1536 spf)
    Compression mode : Lossy
    Delay relative to video : 120ms
    Stream size : 194 MiB (11%)
    Title : Original
    Language : English
    Default : No
    Forced : No
    Text #1
    ID : 1
    Format : UTF-8
    Codec ID : S_TEXT/UTF8
    Codec ID/Info : UTF-8 Plain Text
    Duration : 2h 20mn
    Bit rate : 3 bps
    Count of elements : 67
    Stream size : 3.16 KiB (0%)
    Title : Forced, iTunes
    Language : Russian
    Default : Yes
    Forced : No
    Text #2
    ID : 2
    Format : UTF-8
    Codec ID : S_TEXT/UTF8
    Codec ID/Info : UTF-8 Plain Text
    Duration : 2h 20mn
    Bit rate : 91 bps
    Count of elements : 1753
    Stream size : 94.0 KiB (0%)
    Title : iTunes
    Language : Russian
    Default : No
    Forced : No
    Text #3
    ID : 3
    Format : UTF-8
    Codec ID : S_TEXT/UTF8
    Codec ID/Info : UTF-8 Plain Text
    Duration : 2h 20mn
    Bit rate : 94 bps
    Count of elements : 1753
    Stream size : 96.6 KiB (0%)
    Title : iTunes
    Language : Ukrainian
    Default : No
    Forced : No
    Text #4
    ID : 4
    Format : UTF-8
    Codec ID : S_TEXT/UTF8
    Codec ID/Info : UTF-8 Plain Text
    Duration : 47s 666ms
    Bit rate : 91 bps
    Count of elements : 12
    Stream size : 548 Bytes (0%)
    Title : Forced, iTunes
    Language : English
    Default : No
    Forced : No
    Text #5
    ID : 5
    Format : UTF-8
    Codec ID : S_TEXT/UTF8
    Codec ID/Info : UTF-8 Plain Text
    Duration : 2h 13mn
    Bit rate : 54 bps
    Count of elements : 1617
    Stream size : 53.4 KiB (0%)
    Title : iTunes
    Language : English
    Default : No
    Forced : No
    Menu
    00:00:00.000 : en:Chapter 1
    00:03:22.285 : en:Chapter 2
    00:10:08.983 : en:Chapter 3
    00:15:24.590 : en:Chapter 4
    00:18:25.187 : en:Chapter 5
    00:21:34.376 : en:Chapter 6
    00:24:28.092 : en:Chapter 7
    00:28:52.689 : en:Chapter 8
    00:31:36.645 : en:Chapter 9
    00:34:21.101 : en:Chapter 10
    00:39:13.434 : en:Chapter 11
    00:41:21.771 : en:Chapter 12
    00:46:23.531 : en:Chapter 13
    00:49:25.087 : en:Chapter 14
    00:56:15.747 : en:Chapter 15
    00:59:40.494 : en:Chapter 16
    01:02:23.823 : en:Chapter 17
    01:06:53.134 : en:Chapter 18
    01:09:52.980 : en:Chapter 19
    01:13:51.302 : en:Chapter 20
    01:18:38.255 : en:Chapter 21
    01:22:52.467 : en:Chapter 22
    01:30:41.269 : en:Chapter 23
    01:37:30.094 : en:Chapter 24
    01:43:31.997 : en:Chapter 25
    01:46:16.287 : en:Chapter 26
    01:50:18.737 : en:Chapter 27
    01:54:07.966 : en:Chapter 28
    01:57:49.312 : en:Chapter 29
    02:04:41.683 : en:Chapter 30
    02:11:05.733 : en:Chapter 31
    02:13:28.792 : en:Chapter 32


    Скриншоты для ознакомления




    Марсианин/The Martian (2015) BDRip [H.265/720p-LQ] [hand made 60fps]
    загрузка...
    Рейтинг →
     (голосов: 1, оценка 4/5, голосовать можно 1 раз )

    Другие торренты по теме:

  • Марсианин / The Martian (2015) DCPRip [4K] [2160p] [Трейлер] скачать через торрент бесплатно
  • Марсианин / The Martian (2015) WEBRip [H.264 / 1080p] [Трейлер] скачать через торрент бесплатно
  • Марсианин / The Martian (2015) DCPRip [2K] [Трейлер] скачать через торрент бесплатно
  • Марсианин / The Martian (2015) AAC 2.0 (TS) скачать через торрент бесплатно
  • Марсианин / The Martian (2015) CamRip скачать через торрент бесплатно
  • Марсианин / The Martian (2015) CamRip скачать через торрент бесплатно
  • Марсианин / The Martian (2015) TS [H.264 / 720p-LQ] скачать через торрент бесплатно
  • Марсианин / The Martian (2015) WEBRip [Звук с CAMRip] скачать через торрент бесплатно


    • Комментарии (0):

      Информация

      Информация

        Посетители, находящиеся в группе Гости, не могут оставлять комментарии в данной новости.

        ↓ Меню




        ↓ Опрос

        Вы добавили сайт в закладки?
        Да
        Нет


        Top 10 за месяц (Другое)