.
Авторизация | Регистрация
Хочешь лучшие торренты? Добавь свой email!
Добавить

Торрент скачать бесплатно

» » Белоснежка и Охотник 2 / The Huntsman: Winters War (2016) WEB-DLRip [H.264 / 720p-LQ] [hand made 60fps] торрент скачать бесплатно




    Белоснежка и Охотник 2 / The Huntsman: Winters War (2016) WEB-DLRip [H.264 / 720p-LQ] [hand made 60fps] торрент скачать бесплатно

    Опубликовал: Админ | Дата: 18-06-2016, 19:28 | Просмотров: 70

    Производство: США/Universal Pictures, Roth Films
    Жанр: Фантастика, Приключения
    Режиссер: Седрик Николя-Троян

    Актеры
    Крис Хемсворт, Шарлиз Терон, Джессика Честейн, Эмили Блант, Ник Фрост, Роб Брайдон, Шеридан Смит, Александра Роуч, Сопе Дирису, Сэм Хэзелдайн, Сэм Клафлин, Софи Куксон, Конрад Кхан, Ниам Уолтер, Нана Аджйеман-Бедьяко, Амелия Крауч, Фред Татаскьор, Ралф Айнесон, Линн Уилмот, Колин Морган, Майя Васович

    Описание
    Когда любовь уходит, сердце прекрасной девы обращается в лед. И даже сотни королевств не смогут сдержать поступь ее несметного воинства. Лишь Охотник не ведает страха. Сквозь проклятый лес он идет навстречу своей судьбе.

    Возраст: 16+ (зрителям, достигшим 16 лет)
    Рейтинг MPAA: PG-13 (детям до 13 лет просмотр нежелателен)
    Дата мировой премьеры: 29 марта 2016
    Дата российской премьеры: 14 апреля 2016, UPI
    Продолжительность: 01: 53: 58
    Качество видео: WEB-DLRip 720p-LQ 60fps
    Перевод: Дублированный (iTunes)
    Субтитры: Отсутствуют
    Видео: MPEG-4 AVC/H.264, 3961 Kbpss, 1280x544, 59.94 fps
    Аудио: Русский AC3 5.1, 384 Kbps, 48.0 KHz (Дублированный) iTunes
    Код:

    General
    Unique ID : 203562838018499486398523352830646829345 (0x9924C6CAB2B727CD9075857DEF1E4121)
    Complete name : E:Video60 fpsThe.Huntsman.Winter\'s.War.2The.Huntsman.Winter\'s.War.2.2O16.WEBRip.72Op.60fps.mkv
    Format : Matroska
    Format version : Version 4/Version 2
    File size : 3.46 GiB
    Duration : 1h 53mn
    Overall bit rate : 4 349 Kbps
    Encoded date : UTC 2016-06-16 10:01:46
    Writing application : mkvmerge v7.7.0 (\'Six Voices\') 64bit built on Feb 28 2015 23:39:33
    Writing library : libebml v1.3.1 + libmatroska v1.4.2
    Video
    ID : 1
    Format : AVC
    Format/Info : Advanced Video Codec
    Format profile :High@L4.1
    Format settings, CABAC : Yes
    Format settings, ReFrames : 5 frames
    Codec ID : V_MPEG4/ISO/AVC
    Duration : 1h 53mn
    Bit rate : 3 961 Kbps
    Width : 1 280 pixels
    Height : 544 pixels
    Display aspect ratio : 2.35:1
    Frame rate mode : Constant
    Frame rate : 59.940 (60000/1001) fps
    Color space : YUV
    Chroma subsampling : 4:2:0
    Bit depth : 8 bits
    Scan type : Progressive
    Bits/(Pixel*Frame) : 0.095
    Stream size : 3.15 GiB (91%)
    Title : Rip by izomsk
    Writing library : x264 core 148 r2638 7599210
    Encoding settings : cabac=1/ref=5/deblock=1:-3:-3/analyse=0x3:0x113/me=umh/subme=8/psy=1/psy_rd=1.00:0.00/mixed_ref=1/me_range=32/chroma_me=1/trellis=2/8x8dct=1/cqm=0/deadzone=21, 11/fast_pskip=1/chroma_qp_offset=-2/threads=6/lookahead_threads=1/sliced_threads=0/nr=0/decimate=1/interlaced=0/bluray_compat=0/constrained_intra=0/bframes=3/b_pyramid=2/b_adapt=2/b_bias=0/direct=1/weightb=1/open_gop=0/weightp=2/keyint=1436/keyint_min=141/scenecut=40/intra_refresh=0/rc_lookahead=40/rc=crf/mbtree=1/crf=15.0/qcomp=0.60/qpmin=0/qpmax=69/qpstep=4/vbv_maxrate=62500/vbv_bufsize=78125/crf_max=0.0/nal_hrd=none/filler=0/ip_ratio=1.40/aq=1:1.00
    Language : Russian
    Default : Yes
    Forced : No
    Audio
    ID : 2
    Format : AC-3
    Format/Info : Audio Coding 3
    Mode extension : CM (complete main)
    Format settings, Endianness : Big
    Codec ID : A_AC3
    Duration : 1h 53mn
    Bit rate mode : Constant
    Bit rate : 384 Kbps
    Channel(s) : 6 channels
    Channel positions : Front: L C R, Side: L R, LFE
    Sampling rate : 48.0 KHz
    Frame rate : 31.250 fps (1536 spf)
    Compression mode : Lossy
    Stream size : 313 MiB (9%)
    Title : iTunes
    Language : Russian
    Default : Yes
    Forced : No
    Menu
    00:00:00.000 : en:РіРава 1
    00:06:28.000 : en:РіРава 2
    00:09:28.000 : en:РіРава 3
    00:15:05.000 : en:РіРава 4
    00:21:35.000 : en:РіРава 5
    00:26:54.000 : en:РіРава 6
    00:32:36.000 : en:РіРава 7
    00:36:53.000 : en:РіРава 8
    00:42:16.000 : en:РіРава 9
    00:47:29.000 : en:РіРава 10
    00:54:39.000 : en:РіРава 11
    00:59:28.000 : en:РіРава 12
    01:06:20.000 : en:РіРава 13
    01:10:22.000 : en:РіРава 14
    01:17:47.000 : en:РіРава 15
    01:23:19.000 : en:РіРава 16
    01:28:08.000 : en:РіРава 17
    01:33:42.000 : en:РіРава 18
    01:42:22.000 : en:РіРава 19
    01:44:28.000 : en:РіРава 20


    Скриншоты для ознакомления




    Белоснежка и Охотник 2/The Huntsman: Winters War (2016) WEB-DLRip [H.264/720p-LQ] [hand made 60fps]
    загрузка...
    Рейтинг →
     (голосов: 1, оценка 4/5, голосовать можно 1 раз )

    Другие торренты по теме:

  • Белоснежка и охотник / Snow White and the Huntsman (2012) BDRip [1080p] [Extended Cut] ATV
  • Белоснежка и охотник / Snow White and the Huntsman (2012) BDRip [576p] [Extended Cut] iPad
  • Белоснежка и охотник / Snow White and the Huntsman (2012) BDRip [H.264 / 720p] [hand made 48fps] [Extended Cut] скачать через торрент бесплатно
  • Белоснежка и Охотник 2 / The Huntsman (2016) WEBRip [QuickTime / 1080p] [Тизер] скачать через торрент бесплатно
  • Белоснежка и Охотник 2 / The Huntsman (2016) DCPRip [4K] [MPEG-2 / 2160p] [Трейлер] скачать через торрент бесплатно
  • Белоснежка и Охотник 2 / The Huntsman (2016) DCPRip [2K] [Hi10P, Hi444PP] [Трейлер А] скачать через торрент бесплатно
  • Белоснежка и Охотник 2 / The Huntsman (2016) CamRip
  • Белоснежка и Охотник 2 / The Huntsman: Winters War (2016) TC [Звук с CamRip]


    • Комментарии (0):

      Информация

      Информация

        Посетители, находящиеся в группе Гости, не могут оставлять комментарии в данной новости.

        ↓ Меню




        ↓ Опрос

        Вы добавили сайт в закладки?
        Да
        Нет


        Top 10 за месяц (Другое)