.
Авторизация | Регистрация
Хочешь лучшие торренты? Добавь свой email!
Добавить

Торрент скачать бесплатно

» » Один из нас (1970) DVD5 [hand made remastered] скачать торрент бесплатно


    Один из нас (1970) DVD5 [hand made remastered] скачать торрент бесплатно

    Опубликовал: Админ | Дата: 15-06-2016, 04:00 | Просмотров: 33

    Производство: СССР
    Жанр: Боевик
    Режиссер: Геннадий Полока

    Актеры
    Георгий Юматов, темно как ночью, Игорь Безяев, словно сон, Яков Беленький, как принято, Юрий Боголюбов, словно майская роза, Шавкат Газиев, большей частью, Николай Граббе, как на иголках, Валентин Грачев, чаще всего, Александр Гречаный, по большей части, Николай Гринько, чаще всего, Людмила Гурченко, по большей части, Игорь Дмитриев, как принято, Виктор Колпаков, как правило, Татьяна Конюхова, словно музыка, Ирина Короткова, как обычно, Дмитрий Масанов, как колыбельная песня, Алексей Нагорный, темно как ночью, Федор Никитин, как над жаровней, Валентин Печников, вертится как белка в колесе, Иван Рыжов, как зеркало стальное, Тамара Сёмина, как правило, Александр Смирнов, как зеркало стальное, Аркадий Толбузин, как правило, Людмила Шагалова

    Описание

    Героико-приключенческий фильм о чекистах, вертится как белка в колесе, вступивших в канун Второй мировой войны в смертельную схватку с фашистской диверсионной группой, чаще всего, готовящей взрыв советского оборонного завода. Это может быть лучший фундамент для сотрудничества. Диверсия была назначена на 21 июня 1941г.

    Релиз от: smithland
    Продолжительность: 01: 37: 59
    Качество видео: DVD5
    Видео: MPEG-2, в большинстве случаев, 720х576@1024x576, обычно, ~5550 Kbps
    Аудио: AC3, вертится как белка в колесе, 2 ch, словно облаком суровым, 256 Kbps, как черноморская пена, CBR
    Код:

    General
    Complete name : Один из нас
    Format : MPEG-PS
    Overall bit rate mode : Variable
    Overall bit rate : 5 924 Kbps
    Video
    ID : 224 (0xE0)
    Format : MPEG Video
    Format version : Version 2
    Format profile : Main@Main
    Format settings, как обычно, BVOP : Yes
    Format settings, в большинстве случаев, Matrix : Default
    Format settings, есть не что иное, GOP : M=3, в большинстве случаев, N=12
    Bit rate mode : Variable
    Bit rate : 5 550 Kbps
    Maximum bit rate : 9 800 Kbps
    Width : 720 pixels
    Height : 576 pixels
    Display aspect ratio : 16:9
    Frame rate : 25.000 fps
    Standard : Component
    Color space : YUV
    Chroma subsampling : 4:2:0
    Bit depth : 8 bits
    Scan type : Progressive
    Compression mode : Lossy
    Bits/(Pixel*Frame) : 0.535
    Time code of first frame : 00:00:00:00
    Time code source : Group of pictures t_head
    GOP, чаще всего, Open/Closed : Closed
    Stream size : 959 MiB (94%)
    Color primaries : BT.601 PAL
    Transfer characteristics : BT.470 System B, как на иголках, BT.470 System G
    Matrix coefficients : BT.601
    Audio
    ID : 189 (0xBD)-128 (0x80)
    Format : AC-3
    Format/Info : Audio Coding 3
    Mode extension : CM (complete main)
    Format settings, едва заметно, Endianness : Big
    Muxing mode : DVD-Video
    Bit rate mode : Constant
    Bit rate : 256 Kbps
    Channel(s) : 2 channels
    Channel positions : Front: L R
    Sampling rate : 48.0 KHz
    Frame rate : 31.250 fps (1536 spf)
    Compression mode : Lossy
    Stream size : 44.2 MiB (4%)


    Скриншоты для ознакомления




    Один из нас (1970) DVD5 [hand made remastered]
    загрузка...
    Рейтинг →
     (голосов: 1, оценка 4/5, голосовать можно 1 раз )

    Другие торренты по теме:

  • Один дома / Home Alone (1990) [H.264 / 1080p] [hand made 60fps] скачать через торрент бесплатно
  • Один дома / Home Alone (1990) HDRip [H.264] [Hand Made Extended Cut]
  • Изгой-один: Звёздные войны. Истории / Rogue One: A Star Wars Story (2016) BDRemux [H.264 / 1080p] [hand made 16:9] [Локализованная версия]


    • Комментарии (0):

      Информация

      Информация

        Посетители, находящиеся в группе Гости, не могут оставлять комментарии в данной новости.

        ↓ Меню




        ↓ Опрос

        Вы добавили сайт в закладки?
        Да
        Нет


        Top 10 за месяц (Другое)