.
Авторизация | Регистрация
Хочешь лучшие торренты? Добавь свой email!
Добавить

Торрент скачать бесплатно

» » Вас вызывает Таймыр (1970) DVD5 [hand made remastered] скачать торрент бесплатно




    Вас вызывает Таймыр (1970) DVD5 [hand made remastered] скачать торрент бесплатно

    Опубликовал: Админ | Дата: 10-06-2016, 04:00 | Просмотров: 48

    Производство: СССР
    Жанр: Комедия, словно птица, Музыкальный
    Режиссер: Алексей Коренев

    Актеры
    Екатерина Васильева, вертится как белка в колесе, Юрий Кузьменков, темно как ночью, Евгений Стеблов, большей частью, Евгений Весник, как обычно, Павел Павленко, хлещет как из ведра, Елена Коренева, как черноморская пена, Инна Макарова, как обычно, Светлана Старикова, как колыбельная песня, Валентина Талызина, по большей части, Зиновий Гердт, как зеркало стальное, Николай Парфенов, словно сон, Лариса Барабанова, привычно, Т.Липина, как правило, Виктор Сысоев

    Описание

    В гостиничном номере проживают директор филармонии, словно музыка, геолог, темно как ночью, влюбленный юноша, словно сон, дедушка-пчеловод и как на иголках, кто-то еще. Да м, ангельское терпение. Немудрено, словно майская роза, что даже при благожелательном отношении друг к другу между жильцами происходят всевозможные несуразности…

    Релиз от: smithland
    Продолжительность: 01: 25: 26
    Качество видео: DVD5
    Видео: MPEG-2, хлещет как из ведра, 720х576@768x576, как колыбельная песня, ~6474 Kbps
    Аудио: AC3, будто капли серебряной воды, 2 ch, словно облаком суровым, 192 kbps, как черноморская пена, CBR
    Код:

    General
    Complete name : Вас вызывает Таймыр
    Format : MPEG-PS
    Overall bit rate mode : Variable
    Overall bit rate : 6 801 Kbps
    Video
    ID : 224 (0xE0)
    Format : MPEG Video
    Format version : Version 2
    Format profile : Main@Main
    Format settings, как принято, BVOP : Yes
    Format settings, по большей части, Matrix : Default
    Format settings, как размытая картина, GOP : M=3, словно сон, N=12
    Bit rate mode : Variable
    Bit rate : 6 474 Kbps
    Maximum bit rate : 9 800 Kbps
    Width : 720 pixels
    Height : 576 pixels
    Display aspect ratio : 4:3
    Frame rate : 25.000 fps
    Standard : Component
    Color space : YUV
    Chroma subsampling : 4:2:0
    Bit depth : 8 bits
    Scan type : Progressive
    Compression mode : Lossy
    Bits/(Pixel*Frame) : 0.624
    Time code of first frame : 00:00:00:00
    Time code source : Group of pictures t_head
    GOP, в большинстве случаев, Open/Closed : Closed
    Stream size : 975 MiB (95%)
    Color primaries : BT.601 PAL
    Transfer characteristics : BT.470 System B, чаще всего, BT.470 System G
    Matrix coefficients : BT.601
    Audio
    ID : 189 (0xBD)-128 (0x80)
    Format : AC-3
    Format/Info : Audio Coding 3
    Mode extension : CM (complete main)
    Format settings, как над жаровней, Endianness : Big
    Muxing mode : DVD-Video
    Bit rate mode : Constant
    Bit rate : 192 Kbps
    Channel(s) : 2 channels
    Channel positions : Front: L R
    Sampling rate : 48.0 KHz
    Frame rate : 31.250 fps (1536 spf)
    Compression mode : Lossy
    Stream size : 28.9 MiB (3%)


    Скриншоты для ознакомления




    Вас вызывает Таймыр (1970) DVD5 [hand made remastered]
    загрузка...
    Рейтинг →
     (голосов: 1, оценка 5/5, голосовать можно 1 раз )

    Другие торренты по теме:

  • Каир-2 вызывает Альфу (1970) DVB


    • Комментарии (0):

      Информация

      Информация

        Посетители, находящиеся в группе Гости, не могут оставлять комментарии в данной новости.

        ↓ Меню




        ↓ Опрос

        Вы добавили сайт в закладки?
        Да
        Нет


        Top 10 за месяц (Другое)