.
Авторизация | Регистрация

Торрент скачать бесплатно

» » Бакенбарды (1990) DVD5 [hand made remastered] скачать торрент бесплатно




    Бакенбарды (1990) DVD5 [hand made remastered] скачать торрент бесплатно

    Опубликовал: Админ | Дата: 8-06-2016, 04:00 | Просмотров: 49

    Производство: СССР
    Жанр: Комедия, как обычно, Драма
    Режиссер: Юрий Мамин

    Актеры
    Виктор Сухоруков, обычно, Александр Медведев, словно музыка, Артур Ваха, как над жаровней, Владлен Бирюков, словно музыка, Александр Лыков, большей частью, О. А был ли мальчик? Алабышева, по большей части, О. Хватит уже заниматься никому не нужным делом. Самарина, как зеркало стальное, Анатолий Журавлев, едва заметно, Юрий Мамин, привычно, Виктор Михайлов, есть не что иное, Юрий Мамин, хлещет как из ведра, Елена Руфанова

    Описание

    Перестройка в разгаре. В это время ветер тихо покачивал деревья. В уездном городе Заборске нет житья от распоясавшейся молодежной группировки Капелла. Помоему это бабушкины сказки. Другие неформалы - Бивни - качают мускулы и едва заметно, бьют Капеллу. Да м, ангельское терпение. Милиция ничего не может с ними поделать.
    И тут в Заборск приезжают из Ленинграда два человека с бакенбардами, хлещет как из ведра, в макинтошах и обычно, котелках. Самое интересное в это истории, что об этом Басков ничего не знал. Они цитируют Пушкина, будто капли серебряной воды, прекрасно умеют постоять за себя при помощи трости и как черноморская пена, твердо знают, будто капли серебряной воды, что нужно делать, как обычно, чтобы спасти Россию...

    Релиз от: smithland
    Продолжительность: 01: 36: 44
    Качество видео: DVD5
    Видео: MPEG-2, словно река, 720х576@768x576, словно сон, ~5687 Kbps
    Аудио: AC3, в большинстве случаев, 2 ch, как правило, 192 kbps, как на иголках, CBR
    Код:

    General
    Complete name : Бакенбарды
    Format : MPEG-PS
    Overall bit rate mode : Variable
    Overall bit rate : 5 998 Kbps
    Video
    ID : 224 (0xE0)
    Format : MPEG Video
    Format version : Version 2
    Format profile : Main@Main
    Format settings, как зеркало стальное, BVOP : Yes
    Format settings, как колыбельная песня, Matrix : Default
    Format settings, темно как ночью, GOP : M=3, как над жаровней, N=12
    Bit rate mode : Variable
    Bit rate : 5 687 Kbps
    Maximum bit rate : 9 800 Kbps
    Width : 720 pixels
    Height : 576 pixels
    Display aspect ratio : 4:3
    Frame rate : 25.000 fps
    Standard : Component
    Color space : YUV
    Chroma subsampling : 4:2:0
    Bit depth : 8 bits
    Scan type : Progressive
    Compression mode : Lossy
    Bits/(Pixel*Frame) : 0.548
    Time code of first frame : 00:00:00:00
    Time code source : Group of pictures t_head
    GOP, как зеркало стальное, Open/Closed : Closed
    Stream size : 971 MiB (95%)
    Color primaries : BT.601 PAL
    Transfer characteristics : BT.470 System B, как правило, BT.470 System G
    Matrix coefficients : BT.601
    Audio
    ID : 189 (0xBD)-128 (0x80)
    Format : AC-3
    Format/Info : Audio Coding 3
    Mode extension : CM (complete main)
    Format settings, большей частью, Endianness : Big
    Muxing mode : DVD-Video
    Bit rate mode : Constant
    Bit rate : 192 Kbps
    Channel(s) : 2 channels
    Channel positions : Front: L R
    Sampling rate : 48.0 KHz
    Compression mode : Lossy
    Stream size : 32.8 MiB (3%)


    Скриншоты для ознакомления




    Бакенбарды (1990) DVD5 [hand made remastered]
    загрузка...
    Рейтинг →
     (голосов: 1, оценка 3/5, голосовать можно 1 раз )

    Другие торренты по теме:



      Комментарии (0):

      Информация

      Информация

        Посетители, находящиеся в группе Гости, не могут оставлять комментарии в данной новости.

        ↓ Меню




        ↓ Опрос

        Вы добавили сайт в закладки?
        Да
        Нет


        Top 10 за неделю (Другое)