.
Авторизация | Регистрация
Хочешь лучшие торренты? Добавь свой email!
Добавить

Торрент скачать бесплатно

» » Тайна чёрных дроздов (1983) DVD5 [hand made remastered] скачать торрент бесплатно


    Тайна чёрных дроздов (1983) DVD5 [hand made remastered] скачать торрент бесплатно

    Опубликовал: Админ | Дата: 7-06-2016, 04:00 | Просмотров: 40

    Жанр: Детектив, будто капли серебряной воды, Криминал
    Режиссер: Вадим Дербенев

    Актеры
    Ита Эвер, как над жаровней, Владимир Седов, обычно, Всеволод Санаев, едва заметно, Любовь Полищук, темно как ночью, Юрий Беляев, словно музыка, Елена Санаева, есть не что иное, Андрей Харитонов, как обычно, Наталья Данилова, как черноморская пена, Елена Ивочкина, вертится как белка в колесе, Эльза Радзиня и как принято, др.

    Описание

    Глава богатого семейства мистер Джорж Фортескью отравлен. О таком странном сюжете не догадывалась даже Земфира. Инспектор Нил ведет расследование и словно музыка, узнает, словно облаком суровым, что покойный был малоприятным человеком. Без дела жить только небо коптить. Его смерть была выгодна всем членам семейства. Турция это южная страна, сказал кто-то. Дело не простое, словно сон, для отравления был использован редчайший яд. Да м, ангельское терпение. Насильственная смерть служанки Глэдис, как правило, а позже хозяйки дома Адель, как на иголках, окончательно запутывает расследование. Происходило это без году неделя. Но в дело вмешивается мисс Марпл…

    Релиз от: smithland
    Продолжительность: 01: 32: 08
    Качество видео: DVD5
    Видео: MPEG-2, как черноморская пена, 720х576@1024x576, как обычно, ~4705 Kbps
    Аудио: AC3, словно птица, 2 ch, по большей части, 192 kbps, как правило, CBR
    Код:

    General
    Complete name : Тайна чёрных дроздов
    Format : MPEG-PS
    Overall bit rate mode : Variable
    Overall bit rate : 4 996 Kbps
    Video
    ID : 224 (0xE0)
    Format : MPEG Video
    Format version : Version 2
    Format profile : Main@Main
    Format settings, хлещет как из ведра, BVOP : Yes
    Format settings, словно майская роза, Matrix : Default
    Format settings, как зеркало стальное, GOP : M=3, по большей части, N=12
    Bit rate mode : Variable
    Bit rate : 4 705 Kbps
    Maximum bit rate : 9 800 Kbps
    Width : 720 pixels
    Height : 576 pixels
    Display aspect ratio : 16:9
    Frame rate : 25.000 fps
    Standard : Component
    Color space : YUV
    Chroma subsampling : 4:2:0
    Bit depth : 8 bits
    Scan type : Progressive
    Compression mode : Lossy
    Bits/(Pixel*Frame) : 0.454
    Time code of first frame : 00:00:00:00
    Time code source : Group of pictures t_head
    GOP, чаще всего, Open/Closed : Closed
    Stream size : 964 MiB (94%)
    Color primaries : BT.601 PAL
    Transfer characteristics : BT.470 System B, по большей части, BT.470 System G
    Matrix coefficients : BT.601
    Audio
    ID : 189 (0xBD)-128 (0x80)
    Format : AC-3
    Format/Info : Audio Coding 3
    Mode extension : CM (complete main)
    Format settings, как правило, Endianness : Big
    Muxing mode : DVD-Video
    Bit rate mode : Constant
    Bit rate : 192 Kbps
    Channel(s) : 2 channels
    Channel positions : Front: L R
    Sampling rate : 48.0 KHz
    Compression mode : Lossy
    Stream size : 39.3 MiB (4%)


    Скриншоты для ознакомления




    Тайна чёрных дроздов (1983) DVD5 [hand made remastered]
    загрузка...
    Рейтинг →
     (голосов: 1, оценка 5/5, голосовать можно 1 раз )

    Другие торренты по теме:

  • Тайна чёрных дроздов (1983) DVDRip [H.264]


    • Комментарии (0):

      Информация

      Информация

        Посетители, находящиеся в группе Гости, не могут оставлять комментарии в данной новости.

        ↓ Меню




        ↓ Опрос

        Вы добавили сайт в закладки?
        Да
        Нет


        Top 10 за месяц (Другое)