.
Авторизация | Регистрация
Хочешь лучшие торренты? Добавь свой email!
Добавить

Торрент скачать бесплатно

» » Стинг. Когда уходит последний корабль. Концерт в театре Джозефа Паппа. Нью-Йорк / Sting The Last Ship. Live At The Public Theater (2013) DVB торрент скачать бесплатно




    Стинг. Когда уходит последний корабль. Концерт в театре Джозефа Паппа. Нью-Йорк / Sting The Last Ship. Live At The Public Theater (2013) DVB торрент скачать бесплатно

    Опубликовал: Админ | Дата: 9-03-2016, 04:01 | Просмотров: 44

    Производство: Великобритания, A RadicalMedia Production
    Жанр: Музыка
    Режиссер: Paul Bozymowski
    Актеры: Стинг

    Описание

    Звучат песни Стинга из его нового альбома The Last Ship, которые также вошли в одноименный мюзикл. Темами альбома стали воспоминания о детстве и юности музыканта, которые прошли в портовом городке Уоллсенд на севере Англии. The Last Ship — одиннадцатый сольный студийный альбом британского рок-музыканта Стинга, был издан 24 сентября 2013 года. Первый полноформатный диск музыканта, который содержит оригинальный материал, со времён альбома Sacred Love 2003 года.
    Продолжительность: 01: 22: 03
    Качество видео: DVB
    Перевод: Одноголосый закадровый
    Автор перевода: ГТРК Культура
    Видео: AVC/H.264, 720х576@768x576, ~2644 kbps
    Аудио: MP2, 2 ch, 192 kbps, CBR
    Семпл: Скачать
    Код:

    Общее
    Идентификатор : 16 (0x10)
    Полное имя : Sting The Last Ship_SD.ts
    Формат : MPEG-TS
    Размер файла : 1, 71 Гбайт
    Продолжительность : 1 ч. 22 м.
    Режим общего битрейта : Переменный
    Общий поток : 2985 Кбит/сек
    Видео
    Идентификатор : 1061 (0x425)
    Идентификатор меню : 1060 (0x424)
    Формат : AVC
    Формат/Информация : Advanced Video Codec
    Профиль формата :Main@L3.0
    Параметр CABAC формата : Да
    Параметр ReFrames формата : 4 кадра
    Параметр GOP формата : M=4, N=28
    Идентификатор кодека : 27
    Продолжительность : 1 ч. 22 м.
    Битрейт : 2644 Кбит/сек
    Ширина : 720 пикселей
    Высота : 576 пикселей
    Соотношение сторон : 4:3
    Частота кадров : 25, 000 кадров/сек
    Стандарт вещания : PAL
    Цветовое пространство : YUV
    Субдискретизация насыщенности : 4:2:0
    Битовая глубина : 8 бит
    Тип развёртки : Чересстрочная
    Порядок развёртки : Верхнее поле первое
    Бит/(Пиксели*Кадры) : 0.255
    Размер потока : 1, 52 Гбайт (89%)
    Основные цвета : BT.601 PAL
    Характеристики трансфера : BT.470 System B, BT.470 System G
    Коэффициенты матрицы : BT.601
    Аудио
    Идентификатор : 1062 (0x426)
    Идентификатор меню : 1060 (0x424)
    Формат : MPEG Audio
    Версия формата : Version 1
    Профиль формата : Layer 2
    Идентификатор кодека : 4
    Продолжительность : 1 ч. 22 м.
    Вид битрейта : Постоянный
    Битрейт : 192 Кбит/сек
    Каналы : 2 канала
    Частота : 48, 0 КГц
    Метод сжатия : С потерями
    Задержка видео : 63 мс.
    Размер потока : 113 Мбайт (6%)
    Язык : std
    Язык, дополнительно : Clean effects
    Текст
    Идентификатор : 1064 (0x428)-100
    Идентификатор меню : 1060 (0x424)
    Формат : Teletext
    Меню
    Идентификатор : 1060 (0x424)
    Идентификатор меню : 1060 (0x424)
    Продолжительность : 1 ч. 22 м.
    Список : 1061 (0x425) (AVC)/1062 (0x426) (MPEG Audio, std)/1064 (0x428) ()
    Язык : /std


    Скриншоты для ознакомления




    Стинг. Когда уходит последний корабль. Концерт в театре Джозефа Паппа. Нью-Йорк/Sting The Last Ship. Live At The Public Theater (2013) DVB
    загрузка...
    Рейтинг →
     (голосов: 1, оценка 4/5, голосовать можно 1 раз )

    Другие торренты по теме:

  • Стинг: свободный человек / Sting: a Free Man (2017) HDTV [H.264 / 1080i-LQ]


    • Комментарии (0):

      Информация

      Информация

        Посетители, находящиеся в группе Гости, не могут оставлять комментарии в данной новости.

        ↓ Меню




        ↓ Опрос

        Вы добавили сайт в закладки?
        Да
        Нет


        Top 10 за месяц (Музыка)

        U2 - Songs Of Experience (2017) Deluxe Edition [MP3|320 Kbps] <Classic Rock>

        (скачиваний: 10)
        Павел Пламенев - Неофициальный сборник песен (2014 - 2016) [MP3|192 кб / с] <русский рок, рок>

        (скачиваний: 9)
        George Otsuka Trio - Page 1 (1967) 2014, Nippon Columbia [FLAC|Lossless|tracks + .cue] <Post-Bop>

        (скачиваний: 9)
        Fools Garden (Fools Garden) - 9 Альбомов, 12 Синглов (1993 - 2015) [MP3|320 кб / с]<Rock, Pop Rock>

        (скачиваний: 8)
        Bob Seger - 23 альбома (1969 - 2014) [FLAC|WAVPack|Lossless]<Classic Rock> скачать через торрент бесплатно

        (скачиваний: 8)
        VA - Festival Alfa Future People (2016) [MP3|320 Kbps] <Trance, House, Club>

        (скачиваний: 6)
        Марина Девятова - В день рождения с любовью... (Юбилейный концерт) (2013) WEBRip [H.264 / 720p-LQ]скачать через торрент бесплатно

        (скачиваний: 6)
        FREE FLOW FLAVA - Complete Collection (2014-2016) [MP3|320 Kbps] <Восточный фольк, Hip-hop>

        (скачиваний: 6)
        Cigarettes After Sex - Cigarettes After Sex (2017) [MP3|320 Kbps] <Indie Pop, Dream-Pop>

        (скачиваний: 6)
        Amadeus Veberzinke / Амадеус Веберзинке - J. S. Bach / И. С. Бах: Mass For Organ / Органная месса (1990) [FLAC 2.0 24 / 96|image+.cue (Vinyl-Rip)] <Classical, Organ> скачать через торрент бесплатно

        (скачиваний: 6)