.
Авторизация | Регистрация
Хочешь лучшие торренты? Добавь свой email!
Добавить

Торрент скачать бесплатно

» » Bodil Niska - First Song (2000) Hot Club Records [FLAC|Lossless|tracks + .cue] <Mainstream Jazz> торрент скачать бесплатно




    Bodil Niska - First Song (2000) Hot Club Records [FLAC|Lossless|tracks + .cue] <Mainstream Jazz> торрент скачать бесплатно

    Опубликовал: Админ | Дата: 30-11-2017, 05:00 | Просмотров: 0

    Жанр: Mainstream Jazz
    Издание: Hot Club Records - HCRCD 135
    Продолжительность: 00: 54: 41
    Кодек: FLAC (tracks+.cue)
    Битрейт: Lossless
    Источник (релизер): jazzambazzador
    Страна-производитель диска: Norway
    Наличие сканов в содержимом раздачи: нет

    Треклист

    01. Danny Boy 03: 53
    02. Rosetta 06: 58
    03. Merlin 03: 45
    04. Only Trust Your Heart 06: 16
    05. First Song 06: 03
    06. Up Jumped Spring 05: 45
    07. I skovens dype, stille ro 03: 27
    08. Funk in the Deep Freeze 04: 32
    09. Lotus Blossom 03: 36
    10. To You Dear One 04: 40
    11. Vuggevise for Benedicte 02: 25
    12. Mood 03: 27

    X Lossless Decoder version 20160920 (149.2)
    XLD extraction logfile from 2017-11-27 18: 44: 13 +0100
    Bodil Niska/First Song
    Used drive : HL-DT-ST DVDRW GX40N (revision RQ00)
    Media type : Pressed CD
    Ripper mode : XLD Secure Ripper
    Disable audio cache : OK for the drive with a cache less than 1375KiB
    Make use of C2 pointers : NO
    Read offset correction : 6
    Max retry count : 20
    Gap status : Analyzed, Appended (except HTOA)
    TOC of the extracted CD
    Track | Start | Length | Start sector | End sector
    ---------------------------------------------------------
    1 | 00: 00: 00 | 03: 52: 27 | 0 | 17426
    2 | 03: 52: 27 | 06: 57: 48 | 17427 | 48749
    3 | 10: 50: 00 | 03: 44: 12 | 48750 | 65561
    4 | 14: 34: 12 | 06: 15: 40 | 65562 | 93726
    5 | 20: 49: 52 | 06: 02: 48 | 93727 | 120924
    6 | 26: 52: 25 | 05: 44: 25 | 120925 | 146749
    7 | 32: 36: 50 | 03: 26: 45 | 146750 | 162244
    8 | 36: 03: 20 | 04: 31: 30 | 162245 | 182599
    9 | 40: 34: 50 | 03: 35: 50 | 182600 | 198774
    10 | 44: 10: 25 | 04: 39: 42 | 198775 | 219741
    11 | 48: 49: 67 | 02: 24: 18 | 219742 | 230559
    12 | 51: 14: 10 | 03: 26: 12 | 230560 | 246021
    AccurateRip Summary (DiscID: 001a71dd-00f3c682-a40cd00c)
    Track 01 : OK (v1+v2, confidence 9/9)
    Track 02 : OK (v1+v2, confidence 9/9)
    Track 03 : OK (v1+v2, confidence 9/9)
    Track 04 : OK (v1+v2, confidence 9/9)
    Track 05 : OK (v1+v2, confidence 9/9)
    Track 06 : OK (v1+v2, confidence 9/9)
    Track 07 : OK (v1+v2, confidence 9/9)
    Track 08 : OK (v1+v2, confidence 9/9)
    Track 09 : OK (v1+v2, confidence 9/9)
    Track 10 : OK (v1+v2, confidence 9/9)
    Track 11 : OK (v1+v2, confidence 9/9)
    Track 12 : OK (v1+v2, confidence 9/9)
    -All tracks accurately ripped.
    All Tracks
    Album gain : -3.87 dB
    Peak : 0.999969
    Statistics
    Read error : 0
    Jitter error (maybe fixed) : 0
    Retry sector count : 0
    Damaged sector count : 0
    Track 01
    Filename : /rips/Bodil Niska - First Song (2000) FLAC/01 Danny Boy.flac
    Pre-gap length : 00: 02: 00
    Track gain : -3.46 dB
    Peak : 0.999969
    CRC32 hash (test run) : A38EA5EA
    CRC32 hash : A38EA5EA
    CRC32 hash (skip zero) : 449501FD
    AccurateRip v1 signature : B1A22DE9
    AccurateRip v2 signature : FECFB213
    -Accurately ripped (v1+v2, confidence 6+3/9)
    Statistics
    Read error : 0
    Jitter error (maybe fixed) : 0
    Retry sector count : 0
    Damaged sector count : 0
    Track 02
    Filename : /rips/Bodil Niska - First Song (2000) FLAC/02 Rosetta.flac
    Pre-gap length : 00: 03: 30
    Track gain : -4.33 dB
    Peak : 0.999969
    CRC32 hash (test run) : FD16236C
    CRC32 hash : FD16236C
    CRC32 hash (skip zero) : 5B8DE8E2
    AccurateRip v1 signature : 59A5CD19
    AccurateRip v2 signature : EA645E38
    -Accurately ripped (v1+v2, confidence 6+3/9)
    Statistics
    Read error : 0
    Jitter error (maybe fixed) : 0
    Retry sector count : 0
    Damaged sector count : 0
    Track 03
    Filename : /rips/Bodil Niska - First Song (2000) FLAC/03 Merlin.flac
    Pre-gap length : 00: 02: 50
    Track gain : -2.11 dB
    Peak : 0.999908
    CRC32 hash (test run) : 09B32B02
    CRC32 hash : 09B32B02
    CRC32 hash (skip zero) : 3C3477F8
    AccurateRip v1 signature : FBF136E8
    AccurateRip v2 signature : C2A47FD0
    -Accurately ripped (v1+v2, confidence 6+3/9)
    Statistics
    Read error : 0
    Jitter error (maybe fixed) : 0
    Retry sector count : 0
    Damaged sector count : 0
    Track 04
    Filename : /rips/Bodil Niska - First Song (2000) FLAC/04 Only Trust Your Heart.flac
    Pre-gap length : 00: 02: 12
    Track gain : -4.33 dB
    Peak : 0.999969
    CRC32 hash (test run) : 9E0E4F57
    CRC32 hash : 9E0E4F57
    CRC32 hash (skip zero) : 83DA4765
    AccurateRip v1 signature : FD34C4FC
    AccurateRip v2 signature : 850CB542
    -Accurately ripped (v1+v2, confidence 6+3/9)
    Statistics
    Read error : 0
    Jitter error (maybe fixed) : 0
    Retry sector count : 0
    Damaged sector count : 0
    Track 05
    Filename : /rips/Bodil Niska - First Song (2000) FLAC/05 First Song.flac
    Pre-gap length : 00: 02: 32
    Track gain : -4.28 dB
    Peak : 0.999969
    CRC32 hash (test run) : F3ADA6AF
    CRC32 hash : F3ADA6AF
    CRC32 hash (skip zero) : 4461B14A
    AccurateRip v1 signature : 71EF68A0
    AccurateRip v2 signature : 8836EA84
    -Accurately ripped (v1+v2, confidence 6+3/9)
    Statistics
    Read error : 0
    Jitter error (maybe fixed) : 0
    Retry sector count : 0
    Damaged sector count : 0
    Track 06
    Filename : /rips/Bodil Niska - First Song (2000) FLAC/06 Up Jumped Spring.flac
    Pre-gap length : 00: 03: 65
    Track gain : -1.91 dB
    Peak : 0.999908
    CRC32 hash (test run) : 9373C8AF
    CRC32 hash : 9373C8AF
    CRC32 hash (skip zero) : 3812D187
    AccurateRip v1 signature : 2291C603
    AccurateRip v2 signature : 66415FE3
    -Accurately ripped (v1+v2, confidence 6+3/9)
    Statistics
    Read error : 0
    Jitter error (maybe fixed) : 0
    Retry sector count : 0
    Damaged sector count : 0
    Track 07
    Filename : /rips/Bodil Niska - First Song (2000) FLAC/07 I skovens dype, stille ro.flac
    Pre-gap length : 00: 03: 13
    Track gain : -5.38 dB
    Peak : 0.999969
    CRC32 hash (test run) : A6C1072D
    CRC32 hash : A6C1072D
    CRC32 hash (skip zero) : C2629466
    AccurateRip v1 signature : FF4448BE
    AccurateRip v2 signature : CB284C1B
    -Accurately ripped (v1+v2, confidence 6+3/9)
    Statistics
    Read error : 0
    Jitter error (maybe fixed) : 0
    Retry sector count : 0
    Damaged sector count : 0
    Track 08
    Filename : /rips/Bodil Niska - First Song (2000) FLAC/08 Funk In The Deep Freeze.flac
    Pre-gap length : 00: 02: 38
    Track gain : -3.42 dB
    Peak : 0.999939
    CRC32 hash (test run) : 95512EAD
    CRC32 hash : 95512EAD
    CRC32 hash (skip zero) : BE028CA5
    AccurateRip v1 signature : 28450E83
    AccurateRip v2 signature : 657103EA
    -Accurately ripped (v1+v2, confidence 6+3/9)
    Statistics
    Read error : 0
    Jitter error (maybe fixed) : 0
    Retry sector count : 0
    Damaged sector count : 0
    Track 09
    Filename : /rips/Bodil Niska - First Song (2000) FLAC/09 Lotus Blossom.flac
    Pre-gap length : 00: 03: 13
    Track gain : -3.44 dB
    Peak : 0.895782
    CRC32 hash (test run) : 0E157082
    CRC32 hash : 0E157082
    CRC32 hash (skip zero) : 988910F6
    AccurateRip v1 signature : 8F968770
    AccurateRip v2 signature : 85CC1B9D
    -Accurately ripped (v1+v2, confidence 6+3/9)
    Statistics
    Read error : 0
    Jitter error (maybe fixed) : 0
    Retry sector count : 0
    Damaged sector count : 0
    Track 10
    Filename : /rips/Bodil Niska - First Song (2000) FLAC/10 To You Dear One.flac
    Pre-gap length : 00: 04: 65
    Track gain : -3.25 dB
    Peak : 0.999939
    CRC32 hash (test run) : CA70B0AB
    CRC32 hash : CA70B0AB
    CRC32 hash (skip zero) : 6A7D8849
    AccurateRip v1 signature : 146CF074
    AccurateRip v2 signature : 9050164D
    -Accurately ripped (v1+v2, confidence 6+3/9)
    Statistics
    Read error : 0
    Jitter error (maybe fixed) : 0
    Retry sector count : 0
    Damaged sector count : 0
    Track 11
    Filename : /rips/Bodil Niska - First Song (2000) FLAC/11 Vuggevise for Benedicte.flac
    Pre-gap length : 00: 03: 50
    Track gain : -4.23 dB
    Peak : 0.999908
    CRC32 hash (test run) : E7344C79
    CRC32 hash : E7344C79
    CRC32 hash (skip zero) : 86378E07
    AccurateRip v1 signature : 0033452E
    AccurateRip v2 signature : BA159FED
    -Accurately ripped (v1+v2, confidence 6+3/9)
    Statistics
    Read error : 0
    Jitter error (maybe fixed) : 0
    Retry sector count : 0
    Damaged sector count : 0
    Track 12
    Filename : /rips/Bodil Niska - First Song (2000) FLAC/12 Mood.flac
    Pre-gap length : 00: 04: 13
    Track gain : -3.94 dB
    Peak : 0.999969
    CRC32 hash (test run) : A5518A83
    CRC32 hash : A5518A83
    CRC32 hash (skip zero) : 26ED41CB
    AccurateRip v1 signature : 17BA9D22
    AccurateRip v2 signature : 533FBE83
    -Accurately ripped (v1+v2, confidence 6+3/9)
    Statistics
    Read error : 0
    Jitter error (maybe fixed) : 0
    Retry sector count : 0
    Damaged sector count : 0
    No errors occurred
    End of status report
    -----BEGIN XLD SIGNATURE-----
    sHtZ_9ETv5dZyqk_DkAMw_1SFJ9MrUyydFUik8qk41SY471rRah9qktvyaZeEe2vn4ykKknwsKA9gpA3CH6z0l4Dh9qCycKDK5uA6jy
    -----END XLD SIGNATURE-----

    TITLE First Song
    PERFORMER Bodil Niska
    REM GENRE Jazz
    REM DATE 2000
    REM DISCID A40CD00C
    REM REPLAYGAIN_ALBUM_GAIN -3.87 dB
    REM REPLAYGAIN_ALBUM_PEAK 0.999969
    FILE 01 - Danny Boy.flac WAVE
    TRACK 01 AUDIO
    TITLE Danny Boy
    ISRC NOFHH0035010
    REM REPLAYGAIN_TRACK_GAIN -3.46 dB
    REM REPLAYGAIN_TRACK_PEAK 0.999969
    INDEX 01 00: 00: 00
    TRACK 02 AUDIO
    TITLE Rosetta
    ISRC NOFHH0035020
    REM REPLAYGAIN_TRACK_GAIN -4.33 dB
    REM REPLAYGAIN_TRACK_PEAK 0.999969
    INDEX 00 03: 48: 72
    FILE 02 - Rosetta.flac WAVE
    INDEX 01 00: 00: 00
    TRACK 03 AUDIO
    TITLE Merlin
    ISRC NOFHH0035030
    REM REPLAYGAIN_TRACK_GAIN -2.11 dB
    REM REPLAYGAIN_TRACK_PEAK 0.999908
    INDEX 00 06: 54: 73
    FILE 03 - Merlin.flac WAVE
    INDEX 01 00: 00: 00
    TRACK 04 AUDIO
    TITLE Only Trust Your Heart
    ISRC NOFHH0035040
    REM REPLAYGAIN_TRACK_GAIN -4.33 dB
    REM REPLAYGAIN_TRACK_PEAK 0.999969
    INDEX 00 03: 42: 00
    FILE 04 - Only Trust Your Heart.flac WAVE
    INDEX 01 00: 00: 00
    TRACK 05 AUDIO
    TITLE First Song
    ISRC NOFHH0035050
    REM REPLAYGAIN_TRACK_GAIN -4.28 dB
    REM REPLAYGAIN_TRACK_PEAK 0.999969
    INDEX 00 06: 13: 08
    FILE 05 - First Song.flac WAVE
    INDEX 01 00: 00: 00
    TRACK 06 AUDIO
    TITLE Up Jumped Spring
    ISRC NOFHH0035060
    REM REPLAYGAIN_TRACK_GAIN -1.91 dB
    REM REPLAYGAIN_TRACK_PEAK 0.999908
    INDEX 00 05: 58: 58
    FILE 06 - Up Jumped Spring.flac WAVE
    INDEX 01 00: 00: 00
    TRACK 07 AUDIO
    TITLE I skovens dype, stille ro
    ISRC NOFHH0035070
    REM REPLAYGAIN_TRACK_GAIN -5.38 dB
    REM REPLAYGAIN_TRACK_PEAK 0.999969
    INDEX 00 05: 41: 12
    FILE 07 - I skovens dype, stille ro.flac WAVE
    INDEX 01 00: 00: 00
    TRACK 08 AUDIO
    TITLE Funk in the Deep Freeze
    ISRC NOFHH0035080
    REM REPLAYGAIN_TRACK_GAIN -3.42 dB
    REM REPLAYGAIN_TRACK_PEAK 0.999939
    INDEX 00 03: 24: 07
    FILE 08 - Funk in the Deep Freeze.flac WAVE
    INDEX 01 00: 00: 00
    TRACK 09 AUDIO
    TITLE Lotus Blossom
    ISRC NOFHH0035090
    REM REPLAYGAIN_TRACK_GAIN -3.44 dB
    REM REPLAYGAIN_TRACK_PEAK 0.895782
    INDEX 00 04: 28: 17
    FILE 09 - Lotus Blossom.flac WAVE
    INDEX 01 00: 00: 00
    TRACK 10 AUDIO
    TITLE To You Dear One
    ISRC NOFHH0035100
    REM REPLAYGAIN_TRACK_GAIN -3.25 dB
    REM REPLAYGAIN_TRACK_PEAK 0.999939
    INDEX 00 03: 30: 60
    FILE 10 - To You Dear One.flac WAVE
    INDEX 01 00: 00: 00
    TRACK 11 AUDIO
    TITLE Vuggevise for Benedicte
    ISRC NOFHH0035110
    REM REPLAYGAIN_TRACK_GAIN -4.23 dB
    REM REPLAYGAIN_TRACK_PEAK 0.999908
    INDEX 00 04: 35: 67
    FILE 11 - Vuggevise for Benedicte.flac WAVE
    INDEX 01 00: 00: 00
    TRACK 12 AUDIO
    TITLE Mood
    ISRC NOFHH0035120
    REM REPLAYGAIN_TRACK_GAIN -3.94 dB
    REM REPLAYGAIN_TRACK_PEAK 0.999969
    INDEX 00 02: 20: 05
    FILE 12 - Mood.flac WAVE
    INDEX 01 00: 00: 00

    -----------------------
    DON\'T MODIFY THIS FILE
    -----------------------
    PERFORMER: auCDtect Task Manager, ver. 1.6.0 RC1 build 1.6.0.1
    Copyright (c) 2008-2010 y-soft. All rights reserved
    http://y-soft.org
    ANALYZER: auCDtect: CD records authenticity detector, version 0.8.2
    Copyright (c) 2004 Oleg Berngardt. All rights reserved.
    Copyright (c) 2004 Alexander Djourik. All rights reserved.
    FILE: 12 - Mood.flac
    Size: 18036570 Hash: EBF2A2A2E3C52E3D5F3C3EDA540FEE07 Accuracy: -m0
    Conclusion: CDDA 99%
    Signature: EB8549EDD26A3DF1E8E8DD606558347B261CF87C
    FILE: 11 - Vuggevise for Benedicte.flac
    Size: 12511202 Hash: 86055EF2A300401C64ACE88C1084A7B4 Accuracy: -m0
    Conclusion: CDDA 100%
    Signature: 157ACE536D6141A12614845F80DE00B9BEDF9D7D
    FILE: 10 - To You Dear One.flac
    Size: 22635483 Hash: 64F4512818AD2A8D32665E6A0071F85D Accuracy: -m0
    Conclusion: CDDA 100%
    Signature: DF1B7F100102F18EA739EDF16D7A461CE6BEC816
    FILE: 09 - Lotus Blossom.flac
    Size: 16473616 Hash: 0BD90E2E027E465516945434389A6542 Accuracy: -m0
    Conclusion: CDDA 100%
    Signature: 2C7BEDA55BAD89D57895679CB313F4F4B5CF5D00
    FILE: 08 - Funk in the Deep Freeze.flac
    Size: 27227622 Hash: 7B93C0122158DA1431B48585AC023513 Accuracy: -m0
    Conclusion: CDDA 100%
    Signature: 3C1A1165B98103023F14509A467A77F559FC7B87
    FILE: 07 - I skovens dype, stille ro.flac
    Size: 18297115 Hash: 6521188DA03F37ADAFDE226B71E3EBDD Accuracy: -m0
    Conclusion: CDDA 100%
    Signature: 41EC07F6A269AD07ECAA2318A2E44DD34DA59639
    FILE: 06 - Up Jumped Spring.flac
    Size: 29301644 Hash: 165A3B84AB77C303D37DE9A1986CE43A Accuracy: -m0
    Conclusion: CDDA 100%
    Signature: F554A02C0F9582CDCF36478B019DF74F3D50400E
    FILE: 05 - First Song.flac
    Size: 29038203 Hash: 3216A166934F8B68CC55296289FD6564 Accuracy: -m0
    Conclusion: CDDA 99%
    Signature: 54DA9EAC343E7956CFC2AAC493F6001741AAD047
    FILE: 04 - Only Trust Your Heart.flac
    Size: 37274980 Hash: 6708708BDF3032AF61D43D5AC7591EC1 Accuracy: -m0
    Conclusion: CDDA 100%
    Signature: AB75E7080741040A0E3F73283202C60B921AD3E3
    FILE: 03 - Merlin.flac
    Size: 18064437 Hash: FEA90CFEC8EA6B8308588653AAF50A3D Accuracy: -m0
    Conclusion: CDDA 100%
    Signature: BC1F8C095EFB930D54C1074AF7F65355B99D4EA7
    FILE: 02 - Rosetta.flac
    Size: 39135511 Hash: 8177C4DC8C214BF103478DB16B99E37E Accuracy: -m0
    Conclusion: CDDA 99%
    Signature: 042BD79C3CB922E440D6118C8D1B01BDD957C882
    FILE: 01 - Danny Boy.flac
    Size: 18985365 Hash: 40DF36AB6E3EE14380F112CDDEF101B0 Accuracy: -m0
    Conclusion: CDDA 100%
    Signature: 989E866948DA016340DDFF34BDF4C0E67FD6145D


    Bodil Niska - First Song (2000) Hot Club Records [FLAC|Lossless|tracks + .cue] <Mainstream Jazz>
    загрузка...
    Рейтинг →
     (голосов: 1, оценка 4/5, голосовать можно 1 раз )

    Другие торренты по теме:

  • Bodil Niska - Night Time (2008) Bare Jazz Records [FLAC|Lossless|tracks + .cue] <Mainstream Jazz>
  • Bodil Niska - Blue (2004) Bare Jazz Records [FLAC|Lossless|tracks + .cue] <Mainstream Jazz>


    • Комментарии (0):

      Информация

      Информация

        Посетители, находящиеся в группе Гости, не могут оставлять комментарии в данной новости.

        ↓ Меню




        ↓ Опрос

        Вы добавили сайт в закладки?
        Да
        Нет


        Top 10 за месяц (Музыка)

        U2 - Songs Of Experience (2017) Deluxe Edition [MP3|320 Kbps] <Classic Rock>

        (скачиваний: 10)
        Bob Seger - 23 альбома (1969 - 2014) [FLAC|WAVPack|Lossless]<Classic Rock> скачать через торрент бесплатно

        (скачиваний: 9)
        Fools Garden (Fools Garden) - 9 Альбомов, 12 Синглов (1993 - 2015) [MP3|320 кб / с]<Rock, Pop Rock>

        (скачиваний: 9)
        Павел Пламенев - Неофициальный сборник песен (2014 - 2016) [MP3|192 кб / с] <русский рок, рок>

        (скачиваний: 9)
        George Otsuka Trio - Page 1 (1967) 2014, Nippon Columbia [FLAC|Lossless|tracks + .cue] <Post-Bop>

        (скачиваний: 9)
        Марина Девятова - В день рождения с любовью... (Юбилейный концерт) (2013) WEBRip [H.264 / 720p-LQ]скачать через торрент бесплатно

        (скачиваний: 7)
        FREE FLOW FLAVA - Complete Collection (2014-2016) [MP3|320 Kbps] <Восточный фольк, Hip-hop>

        (скачиваний: 6)
        Сборник видеоклипов от ©BSV Labs.™ (upd 03.03.2015) / РУССКИЕ КЛИПЫ / 1258 штук / 1950 - 2015 / Поп, Рок, Ретро и др. / BDRip, DVDRip, TVRip, SATRip и др. скачать через торрент бесплатно

        (скачиваний: 6)
        Amadeus Veberzinke / Амадеус Веберзинке - J. S. Bach / И. С. Бах: Mass For Organ / Органная месса (1990) [FLAC 2.0 24 / 96|image+.cue (Vinyl-Rip)] <Classical, Organ> скачать через торрент бесплатно

        (скачиваний: 6)
        Cigarettes After Sex - Cigarettes After Sex (2017) [MP3|320 Kbps] <Indie Pop, Dream-Pop>

        (скачиваний: 6)