.
Авторизация | Регистрация
Хочешь лучшие торренты? Добавь свой email!
Добавить

Торрент скачать бесплатно

» » Bodil Niska - Blue (2004) Bare Jazz Records [FLAC|Lossless|tracks + .cue] <Mainstream Jazz> торрент скачать бесплатно




    Bodil Niska - Blue (2004) Bare Jazz Records [FLAC|Lossless|tracks + .cue] <Mainstream Jazz> торрент скачать бесплатно

    Опубликовал: Админ | Дата: 30-11-2017, 05:00 | Просмотров: 0

    Жанр: Mainstream Jazz
    Издание: Bare Jazz Records - BJCD 100
    Продолжительность: 00: 55: 14
    Кодек: FLAC (tracks+.cue)
    Битрейт: Lossless
    Источник (релизер): jazzambazzador
    Страна-производитель диска: Norway
    Наличие сканов в содержимом раздачи: нет

    Треклист

    01. In the Wee Small Hours of the Morning 05: 51
    02. How About You 04: 59
    03. Et gammelt stykke Oslo 04: 32
    04. Taking a Chance on Love 06: 09
    05. Little Lulu 04: 50
    06. Vika mitt drommested 03: 24
    07. Sunday 05: 28
    08. Golden Earrings 03: 48
    09. For All We Know 05: 05
    10. Little Old Lady 05: 45
    11. Blues for Madeleine 05: 29

    X Lossless Decoder version 20160920 (149.2)
    XLD extraction logfile from 2017-11-27 17: 47: 38 +0100
    Bodil Niska/Blue
    Used drive : HL-DT-ST DVDRW GX40N (revision RQ00)
    Media type : Pressed CD
    Ripper mode : XLD Secure Ripper
    Disable audio cache : OK for the drive with a cache less than 1375KiB
    Make use of C2 pointers : NO
    Read offset correction : 6
    Max retry count : 20
    Gap status : Analyzed, Appended (except HTOA)
    TOC of the extracted CD
    Track | Start | Length | Start sector | End sector
    ---------------------------------------------------------
    1 | 00: 00: 00 | 05: 50: 05 | 0 | 26254
    2 | 05: 50: 05 | 04: 58: 62 | 26255 | 48666
    3 | 10: 48: 67 | 04: 31: 60 | 48667 | 69051
    4 | 15: 20: 52 | 06: 09: 00 | 69052 | 96726
    5 | 21: 29: 52 | 04: 49: 13 | 96727 | 118414
    6 | 26: 18: 65 | 03: 23: 02 | 118415 | 133641
    7 | 29: 41: 67 | 05: 27: 38 | 133642 | 158204
    8 | 35: 09: 30 | 03: 47: 15 | 158205 | 175244
    9 | 38: 56: 45 | 05: 04: 12 | 175245 | 198056
    10 | 44: 00: 57 | 05: 44: 08 | 198057 | 223864
    11 | 49: 44: 65 | 05: 28: 52 | 223865 | 248516
    AccurateRip Summary (DiscID: 0016d647-00c46b19-8e0cf10b)
    Track 01 : OK (v1+v2, confidence 13/13)
    Track 02 : OK (v1+v2, confidence 13/13)
    Track 03 : OK (v1+v2, confidence 12/12)
    Track 04 : OK (v1+v2, confidence 12/12)
    Track 05 : OK (v1+v2, confidence 12/12)
    Track 06 : OK (v1+v2, confidence 12/12)
    Track 07 : OK (v1+v2, confidence 12/12)
    Track 08 : OK (v1+v2, confidence 12/12)
    Track 09 : OK (v1+v2, confidence 12/12)
    Track 10 : OK (v1+v2, confidence 12/12)
    Track 11 : OK (v1+v2, confidence 12/12)
    -All tracks accurately ripped.
    All Tracks
    Album gain : -7.99 dB
    Peak : 0.999969
    Statistics
    Read error : 0
    Jitter error (maybe fixed) : 0
    Retry sector count : 0
    Damaged sector count : 0
    Track 01
    Filename : /rips/Bodil Niska - Blue (2004) FLAC/01 In The Wee Small Hours Of The Morning.flac
    Pre-gap length : 00: 02: 00
    Track gain : -6.18 dB
    Peak : 0.986847
    CRC32 hash (test run) : 275918C8
    CRC32 hash : 275918C8
    CRC32 hash (skip zero) : F83B2EF7
    AccurateRip v1 signature : 3E4B15AC
    AccurateRip v2 signature : 5785566A
    -Accurately ripped (v1+v2, confidence 8+5/13)
    Statistics
    Read error : 0
    Jitter error (maybe fixed) : 0
    Retry sector count : 0
    Damaged sector count : 0
    Track 02
    Filename : /rips/Bodil Niska - Blue (2004) FLAC/02 How About You.flac
    Pre-gap length : 00: 02: 45
    Track gain : -7.89 dB
    Peak : 0.999969
    CRC32 hash (test run) : DAF2586C
    CRC32 hash : DAF2586C
    CRC32 hash (skip zero) : F8FFD887
    AccurateRip v1 signature : CBB2DDF1
    AccurateRip v2 signature : 376F13E3
    -Accurately ripped (v1+v2, confidence 8+5/13)
    Statistics
    Read error : 0
    Jitter error (maybe fixed) : 0
    Retry sector count : 0
    Damaged sector count : 0
    Track 03
    Filename : /rips/Bodil Niska - Blue (2004) FLAC/03 Et Gammelt Stykke Oslo.flac
    Pre-gap length : 00: 02: 65
    Track gain : -7.36 dB
    Peak : 0.987640
    CRC32 hash (test run) : 6F14028F
    CRC32 hash : 6F14028F
    CRC32 hash (skip zero) : 537DD636
    AccurateRip v1 signature : 093E2AEA
    AccurateRip v2 signature : 198DCDEE
    -Accurately ripped (v1+v2, confidence 8+4/12)
    Statistics
    Read error : 0
    Jitter error (maybe fixed) : 0
    Retry sector count : 0
    Damaged sector count : 0
    Track 04
    Filename : /rips/Bodil Niska - Blue (2004) FLAC/04 Taking A Chance On Love.flac
    Pre-gap length : 00: 03: 57
    Track gain : -9.38 dB
    Peak : 0.992126
    CRC32 hash (test run) : D214E490
    CRC32 hash : D214E490
    CRC32 hash (skip zero) : 66BFBB0D
    AccurateRip v1 signature : BA4DA491
    AccurateRip v2 signature : 16281938
    -Accurately ripped (v1+v2, confidence 8+4/12)
    Statistics
    Read error : 0
    Jitter error (maybe fixed) : 0
    Retry sector count : 0
    Damaged sector count : 0
    Track 05
    Filename : /rips/Bodil Niska - Blue (2004) FLAC/05 Little Lulu.flac
    Pre-gap length : 00: 02: 70
    Track gain : -7.73 dB
    Peak : 0.988861
    CRC32 hash (test run) : 10206D10
    CRC32 hash : 10206D10
    CRC32 hash (skip zero) : 65827CC2
    AccurateRip v1 signature : 6B052836
    AccurateRip v2 signature : 8A9495E5
    -Accurately ripped (v1+v2, confidence 8+4/12)
    Statistics
    Read error : 0
    Jitter error (maybe fixed) : 0
    Retry sector count : 0
    Damaged sector count : 0
    Track 06
    Filename : /rips/Bodil Niska - Blue (2004) FLAC/06 Vika Mitt Drommested.flac
    Pre-gap length : 00: 05: 10
    Track gain : -7.53 dB
    Peak : 0.986633
    CRC32 hash (test run) : C983F11B
    CRC32 hash : C983F11B
    CRC32 hash (skip zero) : 8672AC7B
    AccurateRip v1 signature : 53D4B7F8
    AccurateRip v2 signature : E519B841
    -Accurately ripped (v1+v2, confidence 8+4/12)
    Statistics
    Read error : 0
    Jitter error (maybe fixed) : 0
    Retry sector count : 0
    Damaged sector count : 0
    Track 07
    Filename : /rips/Bodil Niska - Blue (2004) FLAC/07 Sunday.flac
    Pre-gap length : 00: 03: 37
    Track gain : -7.04 dB
    Peak : 0.991699
    CRC32 hash (test run) : C0869783
    CRC32 hash : C0869783
    CRC32 hash (skip zero) : 5361E8DB
    AccurateRip v1 signature : 6B854048
    AccurateRip v2 signature : DCCCCA5D
    -Accurately ripped (v1+v2, confidence 8+4/12)
    Statistics
    Read error : 0
    Jitter error (maybe fixed) : 0
    Retry sector count : 0
    Damaged sector count : 0
    Track 08
    Filename : /rips/Bodil Niska - Blue (2004) FLAC/08 Golden Earrings.flac
    Pre-gap length : 00: 02: 53
    Track gain : -9.51 dB
    Peak : 0.987183
    CRC32 hash (test run) : BCB4D9AF
    CRC32 hash : BCB4D9AF
    CRC32 hash (skip zero) : AE780611
    AccurateRip v1 signature : E8BD155B
    AccurateRip v2 signature : 3C5BE066
    -Accurately ripped (v1+v2, confidence 8+4/12)
    Statistics
    Read error : 0
    Jitter error (maybe fixed) : 0
    Retry sector count : 0
    Damaged sector count : 0
    Track 09
    Filename : /rips/Bodil Niska - Blue (2004) FLAC/09 For All We Know.flac
    Pre-gap length : 00: 04: 35
    Track gain : -8.11 dB
    Peak : 0.987976
    CRC32 hash (test run) : F5491BB1
    CRC32 hash : F5491BB1
    CRC32 hash (skip zero) : 8DF0EA28
    AccurateRip v1 signature : 22B01371
    AccurateRip v2 signature : 220C14A4
    -Accurately ripped (v1+v2, confidence 8+4/12)
    Statistics
    Read error : 0
    Jitter error (maybe fixed) : 0
    Retry sector count : 0
    Damaged sector count : 0
    Track 10
    Filename : /rips/Bodil Niska - Blue (2004) FLAC/10 Little Old Lady.flac
    Pre-gap length : 00: 05: 72
    Track gain : -7.66 dB
    Peak : 0.987549
    CRC32 hash (test run) : A5FF3D24
    CRC32 hash : A5FF3D24
    CRC32 hash (skip zero) : BEF986F3
    AccurateRip v1 signature : 01216D8B
    AccurateRip v2 signature : 0428E032
    -Accurately ripped (v1+v2, confidence 8+4/12)
    Statistics
    Read error : 0
    Jitter error (maybe fixed) : 0
    Retry sector count : 0
    Damaged sector count : 0
    Track 11
    Filename : /rips/Bodil Niska - Blue (2004) FLAC/11 Blues For Madeleine.flac
    Pre-gap length : 00: 03: 28
    Track gain : -6.80 dB
    Peak : 0.987152
    CRC32 hash (test run) : FB1E18AA
    CRC32 hash : FB1E18AA
    CRC32 hash (skip zero) : 741508F0
    AccurateRip v1 signature : FB4D6A7E
    AccurateRip v2 signature : 7CC4488F
    -Accurately ripped (v1+v2, confidence 8+4/12)
    Statistics
    Read error : 0
    Jitter error (maybe fixed) : 0
    Retry sector count : 0
    Damaged sector count : 0
    No errors occurred
    End of status report
    -----BEGIN XLD SIGNATURE-----
    Fj8WNxHJYxxZ37leC3rbX2KUGOJNL8gWMiFt0Rc9pAsCEQ0oM8XAtKjsMc9d_ygYennQAo1VP8l.JeGcHTttlHq5kk2R0eJf.JOCxWi
    -----END XLD SIGNATURE-----

    TITLE Blue
    PERFORMER Bodil Niska
    REM GENRE Jazz
    REM DATE 2004
    REM DISCID 8E0CF10B
    REM REPLAYGAIN_ALBUM_GAIN -7.99 dB
    REM REPLAYGAIN_ALBUM_PEAK 0.999969
    FILE 01 - In the Wee Small Hours of the Morning.flac WAVE
    TRACK 01 AUDIO
    TITLE In the Wee Small Hours of the Morning
    ISRC NOCCW0401010
    REM REPLAYGAIN_TRACK_GAIN -6.18 dB
    REM REPLAYGAIN_TRACK_PEAK 0.986847
    INDEX 01 00: 00: 00
    TRACK 02 AUDIO
    TITLE How About You
    ISRC NOCCW0401020
    REM REPLAYGAIN_TRACK_GAIN -7.89 dB
    REM REPLAYGAIN_TRACK_PEAK 0.999969
    INDEX 00 05: 47: 35
    FILE 02 - How About You.flac WAVE
    INDEX 01 00: 00: 00
    TRACK 03 AUDIO
    TITLE Et gammelt stykke Oslo
    ISRC NOCCW0401030
    REM REPLAYGAIN_TRACK_GAIN -7.36 dB
    REM REPLAYGAIN_TRACK_PEAK 0.987640
    INDEX 00 04: 55: 72
    FILE 03 - Et gammelt stykke Oslo.flac WAVE
    INDEX 01 00: 00: 00
    TRACK 04 AUDIO
    TITLE Taking a Chance on Love
    ISRC NOCCW0401040
    REM REPLAYGAIN_TRACK_GAIN -9.38 dB
    REM REPLAYGAIN_TRACK_PEAK 0.992126
    INDEX 00 04: 28: 03
    FILE 04 - Taking a Chance on Love.flac WAVE
    INDEX 01 00: 00: 00
    TRACK 05 AUDIO
    TITLE Little Lulu
    ISRC NOCCW0401050
    REM REPLAYGAIN_TRACK_GAIN -7.73 dB
    REM REPLAYGAIN_TRACK_PEAK 0.988861
    INDEX 00 06: 06: 05
    FILE 05 - Little Lulu.flac WAVE
    INDEX 01 00: 00: 00
    TRACK 06 AUDIO
    TITLE Vika mitt drommested
    ISRC NOCCW0401060
    REM REPLAYGAIN_TRACK_GAIN -7.53 dB
    REM REPLAYGAIN_TRACK_PEAK 0.986633
    INDEX 00 04: 44: 03
    FILE 06 - Vika mitt drommested.flac WAVE
    INDEX 01 00: 00: 00
    TRACK 07 AUDIO
    TITLE Sunday
    ISRC NOCCW0401070
    REM REPLAYGAIN_TRACK_GAIN -7.04 dB
    REM REPLAYGAIN_TRACK_PEAK 0.991699
    INDEX 00 03: 19: 40
    FILE 07 - Sunday.flac WAVE
    INDEX 01 00: 00: 00
    TRACK 08 AUDIO
    TITLE Golden Earrings
    ISRC NOCCW0401080
    REM REPLAYGAIN_TRACK_GAIN -9.51 dB
    REM REPLAYGAIN_TRACK_PEAK 0.987183
    INDEX 00 05: 24: 60
    FILE 08 - Golden Earrings.flac WAVE
    INDEX 01 00: 00: 00
    TRACK 09 AUDIO
    TITLE For All We Know
    ISRC NOCCW0401090
    REM REPLAYGAIN_TRACK_GAIN -8.11 dB
    REM REPLAYGAIN_TRACK_PEAK 0.987976
    INDEX 00 03: 42: 55
    FILE 09 - For All We Know.flac WAVE
    INDEX 01 00: 00: 00
    TRACK 10 AUDIO
    TITLE Little Old Lady
    ISRC NOCCW0401100
    REM REPLAYGAIN_TRACK_GAIN -7.66 dB
    REM REPLAYGAIN_TRACK_PEAK 0.987549
    INDEX 00 04: 58: 15
    FILE 10 - Little Old Lady.flac WAVE
    INDEX 01 00: 00: 00
    TRACK 11 AUDIO
    TITLE Blues for Madeleine
    ISRC NOCCW0401110
    REM REPLAYGAIN_TRACK_GAIN -6.80 dB
    REM REPLAYGAIN_TRACK_PEAK 0.987152
    INDEX 00 05: 40: 55
    FILE 11 - Blues for Madeleine.flac WAVE
    INDEX 01 00: 00: 00

    -----------------------
    DON\'T MODIFY THIS FILE
    -----------------------
    PERFORMER: auCDtect Task Manager, ver. 1.6.0 RC1 build 1.6.0.1
    Copyright (c) 2008-2010 y-soft. All rights reserved
    http://y-soft.org
    ANALYZER: auCDtect: CD records authenticity detector, version 0.8.2
    Copyright (c) 2004 Oleg Berngardt. All rights reserved.
    Copyright (c) 2004 Alexander Djourik. All rights reserved.
    FILE: 11 - Blues for Madeleine.flac
    Size: 25836873 Hash: C9B256AC75828F9A940291F367B8F81D Accuracy: -m0
    Conclusion: CDDA 100%
    Signature: 1A4FA41A3CD05513D8D91B8ACEB84265B348A010
    FILE: 10 - Little Old Lady.flac
    Size: 33897247 Hash: 9DD7F3FB8FBC9D4963956CF092E3A5A4 Accuracy: -m0
    Conclusion: CDDA 100%
    Signature: 743D1A32646343800FC0AA36338DDEBC79CDA3B1
    FILE: 09 - For All We Know.flac
    Size: 26237224 Hash: 5970638343525D9B59928A1C40D9CE18 Accuracy: -m0
    Conclusion: CDDA 100%
    Signature: A75231526AE2C2FAF72673C190D86A530CDAA548
    FILE: 08 - Golden Earrings.flac
    Size: 21238064 Hash: A700B2202B608C4058272ABD11541247 Accuracy: -m0
    Conclusion: CDDA 100%
    Signature: 7C4AA7F7B69B92F9157460268B65A2B70828C6AD
    FILE: 07 - Sunday.flac
    Size: 35329978 Hash: 3C5876ED271DBFF52053CA904FC58269 Accuracy: -m0
    Conclusion: CDDA 100%
    Signature: 303DD3A8809A43FC422C61EEBA44E2628EB50B3B
    FILE: 06 - Vika mitt drommested.flac
    Size: 17947001 Hash: 1FE4C37F9F56479573799EE3F6D779FB Accuracy: -m0
    Conclusion: CDDA 99%
    Signature: 0E6714EC9EF57E739F360E39A26D37829B6199EE
    FILE: 05 - Little Lulu.flac
    Size: 28140483 Hash: 69E3660F3DB19A9658A6B200537F5CC1 Accuracy: -m0
    Conclusion: CDDA 99%
    Signature: F745BAA60EB015BDC32041CC72B7FA8E8B86A25C
    FILE: 04 - Taking a Chance on Love.flac
    Size: 37546780 Hash: 5A53DD421E1022BFC8E0DDA560A92F8D Accuracy: -m0
    Conclusion: CDDA 100%
    Signature: 15001B454F83DEF9F37AA16AFC545645E1B55957
    FILE: 03 - Et gammelt stykke Oslo.flac
    Size: 25401311 Hash: FB5A4587017500AB70877CB39E0C6572 Accuracy: -m0
    Conclusion: CDDA 100%
    Signature: 34C13CD09F4A9BA2247C2839BC35B342EB25776F
    FILE: 02 - How About You.flac
    Size: 33895641 Hash: 92E8D64F4E383CC501A0CD0E652F5E07 Accuracy: -m0
    Conclusion: CDDA 100%
    Signature: B81324EE8AED291948B2B4C4C0C721A084A806B5
    FILE: 01 - In the Wee Small Hours of the Morning.flac
    Size: 30897388 Hash: 57308E352A006404C35CA4A1CB72E593 Accuracy: -m0
    Conclusion: CDDA 100%
    Signature: BF2B2A2D81FAF57C01FC8BBE82559FB0646BFF48


    Bodil Niska - Blue (2004) Bare Jazz Records [FLAC|Lossless|tracks + .cue] <Mainstream Jazz>
    загрузка...
    Рейтинг →
     (голосов: 1, оценка 3/5, голосовать можно 1 раз )

    Другие торренты по теме:

  • Bodil Niska - Night Time (2008) Bare Jazz Records [FLAC|Lossless|tracks + .cue] <Mainstream Jazz>
  • Bodil Niska - First Song (2000) Hot Club Records [FLAC|Lossless|tracks + .cue] <Mainstream Jazz>


    • Комментарии (0):

      Информация

      Информация

        Посетители, находящиеся в группе Гости, не могут оставлять комментарии в данной новости.

        ↓ Меню




        ↓ Опрос

        Вы добавили сайт в закладки?
        Да
        Нет


        Top 10 за месяц (Музыка)