.
Авторизация | Регистрация
Хочешь лучшие торренты? Добавь свой email!
Добавить

Торрент скачать бесплатно

» » Bodil Niska - Night Time (2008) Bare Jazz Records [FLAC|Lossless|tracks + .cue] <Mainstream Jazz> торрент скачать бесплатно




    Bodil Niska - Night Time (2008) Bare Jazz Records [FLAC|Lossless|tracks + .cue] <Mainstream Jazz> торрент скачать бесплатно

    Опубликовал: Админ | Дата: 30-11-2017, 05:00 | Просмотров: 0

    Жанр: Mainstream Jazz
    Издание: Bare Jazz Records - BJCD 101
    Продолжительность: 00: 53: 57
    Кодек: FLAC (tracks+.cue)
    Битрейт: Lossless
    Источник (релизер): jazzambazzador
    Страна-производитель диска: Norway
    Наличие сканов в содержимом раздачи: нет

    Треклист

    01. Over the Rainbow 05: 37
    02. Watch What Happens 04: 41
    03. Fiin gammel 04: 26
    04. C\'est si bon 05: 08
    05. The Nearness of You 05: 59
    06. Young at Heart 05: 52
    07. You Don\'t Know What Love Is 06: 11
    08. The Best Things in Life Are Free 05: 35
    09. Come Sunday 06: 09
    10. My One and Only Love 04: 23

    X Lossless Decoder version 20160920 (149.2)
    XLD extraction logfile from 2017-11-27 19: 07: 54 +0100
    Bodil Niska/Night Time
    Used drive : HL-DT-ST DVDRW GX40N (revision RQ00)
    Media type : Pressed CD
    Ripper mode : XLD Secure Ripper
    Disable audio cache : OK for the drive with a cache less than 1375KiB
    Make use of C2 pointers : NO
    Read offset correction : 6
    Max retry count : 20
    Gap status : Analyzed, Appended (except HTOA)
    TOC of the extracted CD
    Track | Start | Length | Start sector | End sector
    ---------------------------------------------------------
    1 | 00: 00: 00 | 05: 36: 48 | 0 | 25247
    2 | 05: 36: 48 | 04: 40: 64 | 25248 | 46311
    3 | 10: 17: 37 | 04: 25: 45 | 46312 | 66231
    4 | 14: 43: 07 | 05: 07: 13 | 66232 | 89269
    5 | 19: 50: 20 | 05: 58: 25 | 89270 | 116144
    6 | 25: 48: 45 | 05: 51: 37 | 116145 | 142506
    7 | 31: 40: 07 | 06: 10: 12 | 142507 | 170268
    8 | 37: 50: 19 | 05: 34: 61 | 170269 | 195379
    9 | 43: 25: 05 | 06: 08: 68 | 195380 | 223047
    10 | 49: 33: 73 | 04: 22: 36 | 223048 | 242733
    AccurateRip Summary (DiscID: 00141919-00a1fdc0-8c0ca40a)
    Track 01 : OK (v1+v2, confidence 14/14)
    Track 02 : OK (v1+v2, confidence 14/14)
    Track 03 : OK (v1+v2, confidence 14/14)
    Track 04 : OK (v1+v2, confidence 14/14)
    Track 05 : OK (v1+v2, confidence 14/14)
    Track 06 : OK (v1+v2, confidence 14/14)
    Track 07 : OK (v1+v2, confidence 14/14)
    Track 08 : OK (v1+v2, confidence 14/14)
    Track 09 : OK (v1+v2, confidence 13/13)
    Track 10 : OK (v1+v2, confidence 13/13)
    -All tracks accurately ripped.
    All Tracks
    Album gain : -5.44 dB
    Peak : 0.990906
    Statistics
    Read error : 0
    Jitter error (maybe fixed) : 0
    Retry sector count : 0
    Damaged sector count : 0
    Track 01
    Filename : /rips/Bodil Niska - Night Time (2008) FLAC/01 Over the Rainbow.flac
    Pre-gap length : 00: 02: 00
    Track gain : -5.45 dB
    Peak : 0.989258
    CRC32 hash (test run) : 3B5B9A0F
    CRC32 hash : 3B5B9A0F
    CRC32 hash (skip zero) : 42F52710
    AccurateRip v1 signature : F037A04B
    AccurateRip v2 signature : 1EE2CC5B
    -Accurately ripped (v1+v2, confidence 9+5/14)
    Statistics
    Read error : 0
    Jitter error (maybe fixed) : 0
    Retry sector count : 0
    Damaged sector count : 0
    Track 02
    Filename : /rips/Bodil Niska - Night Time (2008) FLAC/02 Watch What Happens.flac
    Pre-gap length : 00: 02: 00
    Track gain : -6.53 dB
    Peak : 0.990906
    CRC32 hash (test run) : F32AA52E
    CRC32 hash : F32AA52E
    CRC32 hash (skip zero) : 53EB1CE3
    AccurateRip v1 signature : DF392EB9
    AccurateRip v2 signature : D88F4D1D
    -Accurately ripped (v1+v2, confidence 9+5/14)
    Statistics
    Read error : 0
    Jitter error (maybe fixed) : 0
    Retry sector count : 0
    Damaged sector count : 0
    Track 03
    Filename : /rips/Bodil Niska - Night Time (2008) FLAC/03 Fiin Gammel.flac
    Pre-gap length : 00: 03: 50
    Track gain : -4.72 dB
    Peak : 0.871857
    CRC32 hash (test run) : F2961E98
    CRC32 hash : F2961E98
    CRC32 hash (skip zero) : 842BF5AD
    AccurateRip v1 signature : 955620C1
    AccurateRip v2 signature : 4A8E1F49
    -Accurately ripped (v1+v2, confidence 9+5/14)
    Statistics
    Read error : 0
    Jitter error (maybe fixed) : 0
    Retry sector count : 0
    Damaged sector count : 0
    Track 04
    Filename : /rips/Bodil Niska - Night Time (2008) FLAC/04 C\'est Si Bon.flac
    Pre-gap length : 00: 02: 40
    Track gain : -5.83 dB
    Peak : 0.987213
    CRC32 hash (test run) : EDADCD66
    CRC32 hash : EDADCD66
    CRC32 hash (skip zero) : FFB13B5A
    AccurateRip v1 signature : 9C03EEB6
    AccurateRip v2 signature : 7DE5D65E
    -Accurately ripped (v1+v2, confidence 9+5/14)
    Statistics
    Read error : 0
    Jitter error (maybe fixed) : 0
    Retry sector count : 0
    Damaged sector count : 0
    Track 05
    Filename : /rips/Bodil Niska - Night Time (2008) FLAC/05 The Nearness of You.flac
    Pre-gap length : 00: 02: 10
    Track gain : -4.87 dB
    Peak : 0.987335
    CRC32 hash (test run) : 2EF18C8F
    CRC32 hash : 2EF18C8F
    CRC32 hash (skip zero) : 5449D9A2
    AccurateRip v1 signature : 320A5F0D
    AccurateRip v2 signature : 10A92634
    -Accurately ripped (v1+v2, confidence 9+5/14)
    Statistics
    Read error : 0
    Jitter error (maybe fixed) : 0
    Retry sector count : 0
    Damaged sector count : 0
    Track 06
    Filename : /rips/Bodil Niska - Night Time (2008) FLAC/06 Young at Heart.flac
    Pre-gap length : 00: 02: 60
    Track gain : -5.57 dB
    Peak : 0.987976
    CRC32 hash (test run) : 4C8CE6E0
    CRC32 hash : 4C8CE6E0
    CRC32 hash (skip zero) : 6FC089B3
    AccurateRip v1 signature : EF8F0EBA
    AccurateRip v2 signature : 9633766B
    -Accurately ripped (v1+v2, confidence 9+5/14)
    Statistics
    Read error : 0
    Jitter error (maybe fixed) : 0
    Retry sector count : 0
    Damaged sector count : 0
    Track 07
    Filename : /rips/Bodil Niska - Night Time (2008) FLAC/07 You Don\'t Know What Love Is.flac
    Pre-gap length : 00: 03: 20
    Track gain : -5.58 dB
    Peak : 0.988129
    CRC32 hash (test run) : 9B64D409
    CRC32 hash : 9B64D409
    CRC32 hash (skip zero) : B26E4002
    AccurateRip v1 signature : 63115670
    AccurateRip v2 signature : 79A86BE7
    -Accurately ripped (v1+v2, confidence 9+5/14)
    Statistics
    Read error : 0
    Jitter error (maybe fixed) : 0
    Retry sector count : 0
    Damaged sector count : 0
    Track 08
    Filename : /rips/Bodil Niska - Night Time (2008) FLAC/08 The Best Things in Life Are Free.flac
    Pre-gap length : 00: 03: 50
    Track gain : -4.76 dB
    Peak : 0.988342
    CRC32 hash (test run) : 6D94F0E2
    CRC32 hash : 6D94F0E2
    CRC32 hash (skip zero) : E434200F
    AccurateRip v1 signature : 71593C77
    AccurateRip v2 signature : F0A708B5
    -Accurately ripped (v1+v2, confidence 9+5/14)
    Statistics
    Read error : 0
    Jitter error (maybe fixed) : 0
    Retry sector count : 0
    Damaged sector count : 0
    Track 09
    Filename : /rips/Bodil Niska - Night Time (2008) FLAC/09 Come Sunday.flac
    Pre-gap length : 00: 03: 00
    Track gain : -5.34 dB
    Peak : 0.984619
    CRC32 hash (test run) : 8D920133
    CRC32 hash : 8D920133
    CRC32 hash (skip zero) : EE0A0CED
    AccurateRip v1 signature : 5248D40C
    AccurateRip v2 signature : 70E6D550
    -Accurately ripped (v1+v2, confidence 8+5/13)
    Statistics
    Read error : 0
    Jitter error (maybe fixed) : 0
    Retry sector count : 0
    Damaged sector count : 0
    Track 10
    Filename : /rips/Bodil Niska - Night Time (2008) FLAC/10 My One And Only Love.flac
    Pre-gap length : 00: 05: 00
    Track gain : -2.47 dB
    Peak : 0.814758
    CRC32 hash (test run) : 5B903A64
    CRC32 hash : 5B903A64
    CRC32 hash (skip zero) : 8F1500D5
    AccurateRip v1 signature : C18C0E55
    AccurateRip v2 signature : 2DBFBB79
    -Accurately ripped (v1+v2, confidence 8+5/13)
    Statistics
    Read error : 0
    Jitter error (maybe fixed) : 0
    Retry sector count : 0
    Damaged sector count : 0
    No errors occurred
    End of status report
    -----BEGIN XLD SIGNATURE-----
    nwA2cUtPKG.EgISaMUrgjJe1asqCkAZVp_1NU8XTp7C50kA1yovwijV.c.5J5r8UYsOIuO8xiA1eEkk.gfAWeXG6QAfSpq8hERy3Wem
    -----END XLD SIGNATURE-----

    TITLE Night Time
    PERFORMER Bodil Niska
    REM GENRE Jazz
    REM DATE 2008
    REM DISCID 8C0CA40A
    REM REPLAYGAIN_ALBUM_GAIN -5.44 dB
    REM REPLAYGAIN_ALBUM_PEAK 0.990906
    FILE 01 - Over the Rainbow.flac WAVE
    TRACK 01 AUDIO
    TITLE Over the Rainbow
    ISRC NOCCW0801010
    REM REPLAYGAIN_TRACK_GAIN -5.45 dB
    REM REPLAYGAIN_TRACK_PEAK 0.989258
    INDEX 01 00: 00: 00
    TRACK 02 AUDIO
    TITLE Watch What Happens
    ISRC NOCCW0801020
    REM REPLAYGAIN_TRACK_GAIN -6.53 dB
    REM REPLAYGAIN_TRACK_PEAK 0.990906
    INDEX 00 05: 34: 48
    FILE 02 - Watch What Happens.flac WAVE
    INDEX 01 00: 00: 00
    TRACK 03 AUDIO
    TITLE Fiin gammel
    ISRC NOCCW0801030
    REM REPLAYGAIN_TRACK_GAIN -4.72 dB
    REM REPLAYGAIN_TRACK_PEAK 0.871857
    INDEX 00 04: 37: 14
    FILE 03 - Fiin gammel.flac WAVE
    INDEX 01 00: 00: 00
    TRACK 04 AUDIO
    TITLE C\'est si bon
    ISRC NOCCW0801040
    REM REPLAYGAIN_TRACK_GAIN -5.83 dB
    REM REPLAYGAIN_TRACK_PEAK 0.987213
    INDEX 00 04: 23: 05
    FILE 04 - C\'est si bon.flac WAVE
    INDEX 01 00: 00: 00
    TRACK 05 AUDIO
    TITLE The Nearness of You
    ISRC NOCCW0801050
    REM REPLAYGAIN_TRACK_GAIN -4.87 dB
    REM REPLAYGAIN_TRACK_PEAK 0.987335
    INDEX 00 05: 05: 03
    FILE 05 - The Nearness of You.flac WAVE
    INDEX 01 00: 00: 00
    TRACK 06 AUDIO
    TITLE Young at Heart
    ISRC NOCCW0801060
    REM REPLAYGAIN_TRACK_GAIN -5.57 dB
    REM REPLAYGAIN_TRACK_PEAK 0.987976
    INDEX 00 05: 55: 40
    FILE 06 - Young at Heart.flac WAVE
    INDEX 01 00: 00: 00
    TRACK 07 AUDIO
    TITLE You Don\'t Know What Love Is
    ISRC NOCCW0801070
    REM REPLAYGAIN_TRACK_GAIN -5.58 dB
    REM REPLAYGAIN_TRACK_PEAK 0.988129
    INDEX 00 05: 48: 17
    FILE 07 - You Don\'t Know What Love Is.flac WAVE
    INDEX 01 00: 00: 00
    TRACK 08 AUDIO
    TITLE The Best Things in Life Are Free
    ISRC NOCCW0801080
    REM REPLAYGAIN_TRACK_GAIN -4.76 dB
    REM REPLAYGAIN_TRACK_PEAK 0.988342
    INDEX 00 06: 06: 37
    FILE 08 - The Best Things in Life Are Free.flac WAVE
    INDEX 01 00: 00: 00
    TRACK 09 AUDIO
    TITLE Come Sunday
    ISRC NOCCW0801090
    REM REPLAYGAIN_TRACK_GAIN -5.34 dB
    REM REPLAYGAIN_TRACK_PEAK 0.984619
    INDEX 00 05: 31: 61
    FILE 09 - Come Sunday.flac WAVE
    INDEX 01 00: 00: 00
    TRACK 10 AUDIO
    TITLE My One and Only Love
    ISRC NOCCW0801100
    REM REPLAYGAIN_TRACK_GAIN -2.47 dB
    REM REPLAYGAIN_TRACK_PEAK 0.814758
    INDEX 00 06: 03: 68
    FILE 10 - My One and Only Love.flac WAVE
    INDEX 01 00: 00: 00

    -----------------------
    DON\'T MODIFY THIS FILE
    -----------------------
    PERFORMER: auCDtect Task Manager, ver. 1.6.0 RC1 build 1.6.0.1
    Copyright (c) 2008-2010 y-soft. All rights reserved
    http://y-soft.org
    ANALYZER: auCDtect: CD records authenticity detector, version 0.8.2
    Copyright (c) 2004 Oleg Berngardt. All rights reserved.
    Copyright (c) 2004 Alexander Djourik. All rights reserved.
    FILE: 10 - My One and Only Love.flac
    Size: 18842997 Hash: 2FDC378EFCE499BC9DF1B04E8BA26258 Accuracy: -m0
    Conclusion: CDDA 100%
    Signature: 469517E23E76036A6A64E8CD484662DF1C9DB88C
    FILE: 09 - Come Sunday.flac
    Size: 38322469 Hash: 05B6A4F1100FE0DC5C7D5F7896B598F8 Accuracy: -m0
    Conclusion: CDDA 100%
    Signature: 28130D1F50DCC6700AF493E5F231972B1A3E6F5E
    FILE: 08 - The Best Things in Life Are Free.flac
    Size: 37185299 Hash: 695783371AD492DC16911A6F5A5615E8 Accuracy: -m0
    Conclusion: CDDA 100%
    Signature: A55365AD06909D682A854A71E43FD587E1FC0E51
    FILE: 07 - You Don\'t Know What Love Is.flac
    Size: 36869559 Hash: 5EBC5FC282455BF3D90E7B56B7E51FA5 Accuracy: -m0
    Conclusion: CDDA 100%
    Signature: 27BBD87DDB76A3A3AB350685568DB315106F370A
    FILE: 06 - Young at Heart.flac
    Size: 35687612 Hash: 9CC5FC5A996297042D031BB6C3939AC2 Accuracy: -m0
    Conclusion: CDDA 100%
    Signature: 64F4BB55AD806C3C489169859D558E2B5CCE855E
    FILE: 05 - The Nearness of You.flac
    Size: 35114075 Hash: 6FC71944D9AA5B24458EFE147488F059 Accuracy: -m0
    Conclusion: CDDA 99%
    Signature: 9009D826AE8F228D41ECE953895363A5E8A7A158
    FILE: 04 - C\'est si bon.flac
    Size: 32415560 Hash: 3C686485F8F99F11494FAE895A537B67 Accuracy: -m0
    Conclusion: CDDA 100%
    Signature: 0FC9889CE44270848AB4533EA8E0EE37007E7645
    FILE: 03 - Fiin gammel.flac
    Size: 26145550 Hash: AF77263C3418C3C85065A653DBA5C513 Accuracy: -m0
    Conclusion: CDDA 100%
    Signature: 872B3E7691D9A77791ECFEBA4BB40C90E89833EA
    FILE: 02 - Watch What Happens.flac
    Size: 29556076 Hash: D832568E2290977E6DE701C4165296D8 Accuracy: -m0
    Conclusion: CDDA 100%
    Signature: 6307B4BB2616C89F9426ACD1E64B4760CF2743D8
    FILE: 01 - Over the Rainbow.flac
    Size: 32162304 Hash: 3ABBBFC1DAC783E6F636259BC83AEE08 Accuracy: -m0
    Conclusion: CDDA 99%
    Signature: C970E05019F5D0E87C9D15B9608C4165DC87A06A


    Bodil Niska - Night Time (2008) Bare Jazz Records [FLAC|Lossless|tracks + .cue] <Mainstream Jazz>
    загрузка...
    Рейтинг →
     (голосов: 1, оценка 3/5, голосовать можно 1 раз )

    Другие торренты по теме:

  • Bodil Niska - Blue (2004) Bare Jazz Records [FLAC|Lossless|tracks + .cue] <Mainstream Jazz>
  • Bodil Niska - First Song (2000) Hot Club Records [FLAC|Lossless|tracks + .cue] <Mainstream Jazz>


    • Комментарии (0):

      Информация

      Информация

        Посетители, находящиеся в группе Гости, не могут оставлять комментарии в данной новости.

        ↓ Меню




        ↓ Опрос

        Вы добавили сайт в закладки?
        Да
        Нет


        Top 10 за месяц (Музыка)

        U2 - Songs Of Experience (2017) Deluxe Edition [MP3|320 Kbps] <Classic Rock>

        (скачиваний: 10)
        Павел Пламенев - Неофициальный сборник песен (2014 - 2016) [MP3|192 кб / с] <русский рок, рок>

        (скачиваний: 9)
        George Otsuka Trio - Page 1 (1967) 2014, Nippon Columbia [FLAC|Lossless|tracks + .cue] <Post-Bop>

        (скачиваний: 9)
        Fools Garden (Fools Garden) - 9 Альбомов, 12 Синглов (1993 - 2015) [MP3|320 кб / с]<Rock, Pop Rock>

        (скачиваний: 9)
        Bob Seger - 23 альбома (1969 - 2014) [FLAC|WAVPack|Lossless]<Classic Rock> скачать через торрент бесплатно

        (скачиваний: 8)
        Cigarettes After Sex - Cigarettes After Sex (2017) [MP3|320 Kbps] <Indie Pop, Dream-Pop>

        (скачиваний: 6)
        Марина Девятова - В день рождения с любовью... (Юбилейный концерт) (2013) WEBRip [H.264 / 720p-LQ]скачать через торрент бесплатно

        (скачиваний: 6)
        Amadeus Veberzinke / Амадеус Веберзинке - J. S. Bach / И. С. Бах: Mass For Organ / Органная месса (1990) [FLAC 2.0 24 / 96|image+.cue (Vinyl-Rip)] <Classical, Organ> скачать через торрент бесплатно

        (скачиваний: 6)
        Ten Years After - 11 Studio, 4 Live Albums, 8 Compilation, 2 Box Set [50 CD] (1967 - 2014) 47CD [FLAC|Lossless|image + .cue]<Classic Rock, Blues-Rock>

        (скачиваний: 6)
        FREE FLOW FLAVA - Complete Collection (2014-2016) [MP3|320 Kbps] <Восточный фольк, Hip-hop>

        (скачиваний: 6)