.
Авторизация | Регистрация
Хочешь лучшие торренты? Добавь свой email!
Добавить

Торрент скачать бесплатно

» » Катя Огонёк - В сердце моём (2008) [FLAC|Lossless|image + .cue]<Шансон> торрент скачать бесплатно




    Катя Огонёк - В сердце моём (2008) [FLAC|Lossless|image + .cue]<Шансон> торрент скачать бесплатно

    Опубликовал: Админ | Дата: 30-11-2017, 05:00 | Просмотров: 0

    Год: 2008
    Жанр: Шансон
    Издание: CC CD 12/08
    Источник (релизер): eloychik ®
    Продолжительность: 00: 54: 27
    Кодек: FLAC
    Битрейт: Lossless
    Тип рипа: image + .cue

    Треклист

    01. В сердце моём
    02. Песня о любви
    03. Синеглазый
    04. За подруг
    05. Я не могу без него
    06. Воля - это жизнь
    07. Любовники
    08. Горький мед
    09. Детка - малолетка
    10. Белая тайга
    11. Дорожный роман
    12. Через года
    13. Поцелуй
    14. Катя
    15. А я пою (Аплодисменты)
    Код: выделить все

    Exact Audio Copy V1.3 from 2. September 2016
    Отчёт EAC об извлечении, выполненном 28. ноября 2017, 12:24
    Катя Огонtк/В сердце моем
    Дисковод: ASUS DRW-24D5MT Adapter: 1 ID: 0
    Режим чтения : Достоверность
    Использование точного потока : Да
    Отключение кэша аудио : Да
    Использование указателей C2 : Нет
    Коррекция смещения при чтении : 6
    Способность читать области Lead-in и Lead-out : Нет
    Заполнение пропущенных сэмплов тишиной : Да
    Удаление блоков с тишиной в начале и конце : Нет
    При вычислениях CRC использовались нулевые сэмплы : Да
    Интерфейс : Встроенный Win32-интерфейс для Win NT/2000
    Выходной формат : Пользовательский кодировщик
    Выбранный битрейт : 128 kBit/s
    Качество : Высокий
    Добавление ID3-тега : Нет
    Утилита сжатия : C:Program Files (x86)Exact Audio CopyFlacflac.exe
    Дополнительные параметры : -V -8 -T Date=%year% -T Genre=%genre% %source%
    TOC извлечённого CD
    Трек | Старт | Длительность | Начальный сектор | Конечный сектор
    ---------------------------------------------------------------------
    1 | 0:00.00 | 4:31.26 | 0 | 20350
    2 | 4:31.26 | 2:41.38 | 20351 | 32463
    3 | 7:12.64 | 2:55.31 | 32464 | 45619
    4 | 10:08.20 | 3:02.33 | 45620 | 59302
    5 | 13:10.53 | 3:25.57 | 59303 | 74734
    6 | 16:36.35 | 2:58.44 | 74735 | 88128
    7 | 19:35.04 | 4:35.60 | 88129 | 108813
    8 | 24:10.64 | 3:17.23 | 108814 | 123611
    9 | 27:28.12 | 3:47.03 | 123612 | 140639
    10 | 31:15.15 | 4:47.55 | 140640 | 162219
    11 | 36:02.70 | 5:29.12 | 162220 | 186906
    12 | 41:32.07 | 3:06.57 | 186907 | 200913
    13 | 44:38.64 | 3:52.66 | 200914 | 218379
    14 | 48:31.55 | 2:25.72 | 218380 | 229326
    15 | 50:57.52 | 3:29.03 | 229327 | 245004
    Характеристики диапазона извлечения и сообщения об ошибках
    Выбранный диапазон
    Имя файла E:РаздачиNNMClub-eloychik ®Катя Огонек - В сердце моем [NNM-CLUB.NAME]Катя Огонtк - В сердце моем.wav
    Пиковый уровень 96.6 %
    Скорость извлечения 7.7 X
    Качество диапазона 100.0 %
    CRC теста 3737CF6D
    CRC копии 3737CF6D
    Копирование... OK
    Ошибок не произошло
    AccurateRip: сводка
    Трек 1 точность не определена (достоверность 1) [EF6E3479], AccurateRip вернул [CAD54DF3] (AR v2)
    Трек 2 точность не определена (достоверность 1) [80FFF961], AccurateRip вернул [8D06AE57] (AR v2)
    Трек 3 точность не определена (достоверность 1) [696FCF21], AccurateRip вернул [8DB54EC1] (AR v2)
    Трек 4 точность не определена (достоверность 1) [2F93CCDF], AccurateRip вернул [2B2CE57E] (AR v2)
    Трек 5 точность не определена (достоверность 1) [113A104A], AccurateRip вернул [3C83BDAD] (AR v2)
    Трек 6 точность не определена (достоверность 1) [5FDAC3E8], AccurateRip вернул [F6853685] (AR v2)
    Трек 7 точность не определена (достоверность 1) [F20E4009], AccurateRip вернул [165D1D26] (AR v2)
    Трек 8 точность не определена (достоверность 1) [5AF01BDD], AccurateRip вернул [DDD310B4] (AR v2)
    Трек 9 точность не определена (достоверность 1) [E5B7C17A], AccurateRip вернул [16F10F3A] (AR v2)
    Трек 10 точность не определена (достоверность 1) [D5F297D1], AccurateRip вернул [7B88131E] (AR v2)
    Трек 11 точность не определена (достоверность 1) [89ACCD6A], AccurateRip вернул [3EAD4B43] (AR v2)
    Трек 12 точность не определена (достоверность 1) [15883330], AccurateRip вернул [1BCB8226] (AR v2)
    Трек 13 точность не определена (достоверность 1) [09F13289], AccurateRip вернул [F5E22366] (AR v2)
    Трек 14 точность не определена (достоверность 1) [64969041], AccurateRip вернул [AAA2B695] (AR v2)
    Трек 15 точность не определена (достоверность 1) [9D07DFB2], AccurateRip вернул [57321702] (AR v2)
    Ни один трек не прошёл проверки на точность
    В вашей базе может быть иной вариант штамповки диска
    Конец отчёта
    ==== Контрольная сумма отчёта 1BE286B43768644B484996B760F57067090631FB44475AF4D05384BAE363D675 ====
    Код: выделить все

    REM GENRE Chanson
    REM DATE 2008
    REM DISCID DB0CC20F
    REM COMMENT ExactAudioCopy v1.3
    PERFORMER Катя Огонtк
    TITLE В сердце моем
    REM COMPOSER
    FILE Катя Огонtк - В сердце моем.flac WAVE
    TRACK 01 AUDIO
    TITLE В сердце моем
    PERFORMER Катя Огонtк
    REM COMPOSER
    INDEX 01 00:00:00
    TRACK 02 AUDIO
    TITLE Песня о любви
    PERFORMER Катя Огонtк
    REM COMPOSER
    INDEX 01 04:31:26
    TRACK 03 AUDIO
    TITLE Синеглазый
    PERFORMER Катя Огонtк
    REM COMPOSER
    INDEX 01 07:12:64
    TRACK 04 AUDIO
    TITLE За подруг
    PERFORMER Катя Огонtк
    REM COMPOSER
    INDEX 01 10:08:20
    TRACK 05 AUDIO
    TITLE Я не могу без него
    PERFORMER Катя Огонtк
    REM COMPOSER
    INDEX 01 13:10:53
    TRACK 06 AUDIO
    TITLE Воля - это жизнь
    PERFORMER Катя Огонtк
    REM COMPOSER
    INDEX 01 16:36:35
    TRACK 07 AUDIO
    TITLE Любовники
    PERFORMER Катя Огонtк
    REM COMPOSER
    INDEX 01 19:35:04
    TRACK 08 AUDIO
    TITLE Горький мед
    PERFORMER Катя Огонtк
    REM COMPOSER
    INDEX 01 24:10:64
    TRACK 09 AUDIO
    TITLE Детка - малолетка
    PERFORMER Катя Огонtк
    REM COMPOSER
    INDEX 01 27:28:12
    TRACK 10 AUDIO
    TITLE Белая тайга
    PERFORMER Катя Огонtк
    REM COMPOSER
    INDEX 01 31:15:15
    TRACK 11 AUDIO
    TITLE Дорожный роман
    PERFORMER Катя Огонtк
    REM COMPOSER
    INDEX 01 36:02:70
    TRACK 12 AUDIO
    TITLE Через года
    PERFORMER Катя Огонtк
    REM COMPOSER
    INDEX 01 41:32:07
    TRACK 13 AUDIO
    TITLE Поцелуй
    PERFORMER Катя Огонtк
    REM COMPOSER
    INDEX 01 44:38:64
    TRACK 14 AUDIO
    TITLE Катя
    PERFORMER Катя Огонtк
    REM COMPOSER
    INDEX 01 48:31:55
    TRACK 15 AUDIO
    TITLE А я пою (Аплодисменты)
    PERFORMER Катя Огонtк
    REM COMPOSER
    INDEX 01 50:57:52
    Код: выделить все

    -----------------------
    DON\'T MODIFY THIS FILE
    -----------------------
    PERFORMER: auCDtect Task Manager, ver. 1.6.0 RC1 build 1.6.0.1
    Copyright (c) 2008-2010 y-soft. All rights reserved
    http://y-soft.org
    ANALYZER: auCDtect: CD records authenticity detector, version 0.8.2
    Copyright (c) 2004 Oleg Berngardt. All rights reserved.
    Copyright (c) 2004 Alexander Djourik. All rights reserved.
    FILE: Катя Огонtк - В сердце моем.flac
    Size: 411499960 Hash: 3F15F8793AF19D63D3E8A02FF2CABA72 Accuracy: -m0
    Conclusion: CDDA 100%
    Signature: 223ABC049D173F7E656E46440FB0CA485846763E
    Время раздачи: Пн-Пт с 17: 00 до 20: 00 и по возможности


    Поглощение/вытеснение
    Только с согласия релизера

    Чех


    Катя Огонёк - В сердце моём (2008) [FLAC|Lossless|image + .cue]<Шансон>
    загрузка...
    Рейтинг →
     (голосов: 1, оценка 4/5, голосовать можно 1 раз )

    Другие торренты по теме:

  • Катя Огонёк - Серия «Золотые хиты » (2012) [FLAC|Lossless|image + .cue] <Chanson>
  • Катя Огонёк - Русский шансон , выпуск №20 (2004) [FLAC|Lossless|image + .cue] <Chanson>


    • Комментарии (0):

      Информация

      Информация

        Посетители, находящиеся в группе Гости, не могут оставлять комментарии в данной новости.

        ↓ Меню




        ↓ Опрос

        Вы добавили сайт в закладки?
        Да
        Нет


        Top 10 за месяц (Музыка)

        U2 - Songs Of Experience (2017) Deluxe Edition [MP3|320 Kbps] <Classic Rock>

        (скачиваний: 11)
        Fools Garden (Fools Garden) - 9 Альбомов, 12 Синглов (1993 - 2015) [MP3|320 кб / с]<Rock, Pop Rock>

        (скачиваний: 9)
        Bob Seger - 23 альбома (1969 - 2014) [FLAC|WAVPack|Lossless]<Classic Rock> скачать через торрент бесплатно

        (скачиваний: 9)
        Павел Пламенев - Неофициальный сборник песен (2014 - 2016) [MP3|192 кб / с] <русский рок, рок>

        (скачиваний: 9)
        George Otsuka Trio - Page 1 (1967) 2014, Nippon Columbia [FLAC|Lossless|tracks + .cue] <Post-Bop>

        (скачиваний: 9)
        Марина Девятова - В день рождения с любовью... (Юбилейный концерт) (2013) WEBRip [H.264 / 720p-LQ]скачать через торрент бесплатно

        (скачиваний: 7)
        VA - Festival Alfa Future People (2016) [MP3|320 Kbps] <Trance, House, Club>

        (скачиваний: 6)
        Коллекция клипов в авто (RUS) (2DIN) (2000-2015) HDTVRip

        (скачиваний: 6)
        Ten Years After - 11 Studio, 4 Live Albums, 8 Compilation, 2 Box Set [50 CD] (1967 - 2014) 47CD [FLAC|Lossless|image + .cue]<Classic Rock, Blues-Rock>

        (скачиваний: 6)
        Сборник видеоклипов от ©BSV Labs.™ (upd 03.03.2015) / РУССКИЕ КЛИПЫ / 1258 штук / 1950 - 2015 / Поп, Рок, Ретро и др. / BDRip, DVDRip, TVRip, SATRip и др. скачать через торрент бесплатно

        (скачиваний: 6)