.
Авторизация | Регистрация
Хочешь лучшие торренты? Добавь свой email!
Добавить

Торрент скачать бесплатно

» » Sting - Greatest Hits [2CD] (2017) [FLAC|Lossless|tracks + .cue] <Jazz, Rock, Pop> торрент скачать бесплатно




    Sting - Greatest Hits [2CD] (2017) [FLAC|Lossless|tracks + .cue] <Jazz, Rock, Pop> торрент скачать бесплатно

    Опубликовал: Админ | Дата: 29-11-2017, 05:00 | Просмотров: 0

    Жанр: Jazz, Rock, Pop
    Издание: AM Records - 4607147916735
    Продолжительность: 02: 38: 52
    Наличие сканов в раздаче: Да
    Кодек: FLAC
    Битрейт: Lossless
    Тип рипа: tracks + .cue

    Прoдолжительность: 01: 18: 58

    Треклист

    01. I Can\'t Stop Thinking About You
    02. And Yet
    03. Send Your Love
    04. Shape Of My Heart
    05. Mad About You
    06. Roxanne
    07. Soul Cake
    08. The Last Ship
    09. La Belle Dame Sans Regrets
    10. One Fine Day
    11. Dead Man\'s Boots
    12. If I Ever Lose My Faith In You
    13. Seven Days
    14. Englishman In New York
    15. Fields Of Gold
    16. Fragile
    17. The Hounds Of Winter
    18. If You Love Somebody Set Them Free
    19. I Hung My Head

    Exact Audio Copy V1.0 beta 3 from 29. August 2011
    EAC extraction logfile from 25. November 2017, 13: 36
    Sting/Greatest Hits
    Used drive : TSSTcorpDVD+-RW SN-208BB Adapter: 1 ID: 0
    Read mode : Secure
    Utilize accurate stream : Yes
    Defeat audio cache : Yes
    Make use of C2 pointers : No
    Read offset correction : 6
    Overread into Lead-In and Lead-Out : No
    Fill up missing offset samples with silence : Yes
    Delete leading and trailing silent blocks : No
    Null samples used in CRC calculations : Yes
    Used interface : Native Win32 interface for Win NT 2000
    Gap handling : Appended to previous track
    Used output format : User Defined Encoder
    Selected bitrate : 768 kBit/s
    Quality : High
    Add ID3 tag : No
    Command line compressor : D: SoftAudioEACPortableAppEACFLACflac.exe
    Additional command line options : -8 -V -T TITLE=%title% -T ARTIST=%artist% -T ALBUMARTIST=%albumartist% -T ALBUM=%albumtitle% -T DATE=%year% -T TRACKNUMBER=%tracknr% -T TRACKTOTAL=%numtracks% -T GENRE=%genre% -T COMMENT=%comment% -T PERFORMER=%albuminterpret% -T COMPOSER=%composer% %source% -o %dest%
    TOC of the extracted CD
    Track | Start | Length | Start sector | End sector
    ---------------------------------------------------------
    1 | 0: 00.00 | 3: 37.72 | 0 | 16346
    2 | 3: 37.72 | 3: 51.73 | 16347 | 33744
    3 | 7: 29.70 | 4: 41.02 | 33745 | 54821
    4 | 12: 10.72 | 4: 35.57 | 54822 | 75503
    5 | 16: 46.54 | 3: 56.45 | 75504 | 93248
    6 | 20: 43.24 | 3: 36.73 | 93249 | 109521
    7 | 24: 20.22 | 3: 29.06 | 109522 | 125202
    8 | 27: 49.28 | 3: 47.62 | 125203 | 142289
    9 | 31: 37.15 | 5: 13.62 | 142290 | 165826
    10 | 36: 51.02 | 3: 14.03 | 165827 | 180379
    11 | 40: 05.05 | 3: 28.69 | 180380 | 196048
    12 | 43: 33.74 | 4: 27.12 | 196049 | 216085
    13 | 48: 01.11 | 4: 39.02 | 216086 | 237012
    14 | 52: 40.13 | 4: 27.71 | 237013 | 257108
    15 | 57: 08.09 | 3: 39.05 | 257109 | 273538
    16 | 60: 47.14 | 3: 52.64 | 273539 | 291002
    17 | 64: 40.03 | 5: 27.03 | 291003 | 315530
    18 | 70: 07.06 | 4: 14.68 | 315531 | 334648
    19 | 74: 21.74 | 4: 36.17 | 334649 | 355365
    Track 1
    Filename F: StingCD11 I Can\'t Stop Thinking About You.wav
    Pre-gap length 0: 00: 02.00
    Peak level 100.0 %
    Extraction speed 1.2 X
    Track quality 100.0 %
    Test CRC B6EEB368
    Copy CRC B6EEB368
    Track not present in AccurateRip database
    Copy OK
    Track 2
    Filename F: StingCD12 And Yet.wav
    Pre-gap length 0: 00: 02.00
    Peak level 96.1 %
    Extraction speed 1.3 X
    Track quality 100.0 %
    Test CRC B206B9D7
    Copy CRC B206B9D7
    Track not present in AccurateRip database
    Copy OK
    Track 3
    Filename F: StingCD13 Send Your Love.wav
    Pre-gap length 0: 00: 02.00
    Peak level 95.8 %
    Extraction speed 1.4 X
    Track quality 100.0 %
    Test CRC 5D81F5FB
    Copy CRC 5D81F5FB
    Track not present in AccurateRip database
    Copy OK
    Track 4
    Filename F: StingCD14 Shape Of My Heart.wav
    Pre-gap length 0: 00: 02.00
    Peak level 100.0 %
    Extraction speed 1.6 X
    Track quality 100.0 %
    Test CRC 6643E817
    Copy CRC 6643E817
    Track not present in AccurateRip database
    Copy OK
    Track 5
    Filename F: StingCD15 Mad About You.wav
    Pre-gap length 0: 00: 02.00
    Peak level 100.0 %
    Extraction speed 1.7 X
    Track quality 100.0 %
    Test CRC B4E188DB
    Copy CRC B4E188DB
    Track not present in AccurateRip database
    Copy OK
    Track 6
    Filename F: StingCD16 Roxanne.wav
    Pre-gap length 0: 00: 02.00
    Peak level 100.0 %
    Extraction speed 1.7 X
    Track quality 100.0 %
    Test CRC 68EB2996
    Copy CRC 68EB2996
    Track not present in AccurateRip database
    Copy OK
    Track 7
    Filename F: StingCD17 Soul Cake.wav
    Pre-gap length 0: 00: 02.00
    Peak level 69.6 %
    Extraction speed 1.8 X
    Track quality 100.0 %
    Test CRC 0A27B18C
    Copy CRC 0A27B18C
    Track not present in AccurateRip database
    Copy OK
    Track 8
    Filename F: StingCD18 The Last Ship.wav
    Pre-gap length 0: 00: 02.00
    Peak level 99.4 %
    Extraction speed 1.9 X
    Track quality 100.0 %
    Test CRC EB4A1817
    Copy CRC EB4A1817
    Track not present in AccurateRip database
    Copy OK
    Track 9
    Filename F: StingCD19 La Belle Dame Sans Regrets.wav
    Pre-gap length 0: 00: 02.00
    Peak level 100.0 %
    Extraction speed 1.9 X
    Track quality 100.0 %
    Test CRC 1CFF77B3
    Copy CRC 1CFF77B3
    Track not present in AccurateRip database
    Copy OK
    Track 10
    Filename F: StingCD110 One Fine Day.wav
    Pre-gap length 0: 00: 02.00
    Peak level 100.0 %
    Extraction speed 2.0 X
    Track quality 100.0 %
    Test CRC E1DADA19
    Copy CRC E1DADA19
    Track not present in AccurateRip database
    Copy OK
    Track 11
    Filename F: StingCD111 Dead Man\'s Boots.wav
    Pre-gap length 0: 00: 02.00
    Peak level 99.4 %
    Extraction speed 2.1 X
    Track quality 100.0 %
    Test CRC 91134B2C
    Copy CRC 91134B2C
    Track not present in AccurateRip database
    Copy OK
    Track 12
    Filename F: StingCD112 If I Ever Lose My Faith In You.wav
    Pre-gap length 0: 00: 02.00
    Peak level 100.0 %
    Extraction speed 2.2 X
    Track quality 100.0 %
    Test CRC 596EB49E
    Copy CRC 596EB49E
    Track not present in AccurateRip database
    Copy OK
    Track 13
    Filename F: StingCD113 Seven Days.wav
    Pre-gap length 0: 00: 02.00
    Peak level 100.0 %
    Extraction speed 2.3 X
    Track quality 100.0 %
    Test CRC BC920C85
    Copy CRC BC920C85
    Track not present in AccurateRip database
    Copy OK
    Track 14
    Filename F: StingCD114 Englishman In New York.wav
    Pre-gap length 0: 00: 02.00
    Peak level 100.0 %
    Extraction speed 2.3 X
    Track quality 100.0 %
    Test CRC F58DE302
    Copy CRC F58DE302
    Track not present in AccurateRip database
    Copy OK
    Track 15
    Filename F: StingCD115 Fields Of Gold.wav
    Pre-gap length 0: 00: 02.00
    Peak level 100.0 %
    Extraction speed 2.3 X
    Track quality 100.0 %
    Test CRC 74A22A3B
    Copy CRC 74A22A3B
    Track not present in AccurateRip database
    Copy OK
    Track 16
    Filename F: StingCD116 Fragile.wav
    Pre-gap length 0: 00: 02.00
    Peak level 100.0 %
    Extraction speed 2.4 X
    Track quality 100.0 %
    Test CRC FB1F11B5
    Copy CRC FB1F11B5
    Track not present in AccurateRip database
    Copy OK
    Track 17
    Filename F: StingCD117 The Hounds Of Winter.wav
    Pre-gap length 0: 00: 02.00
    Peak level 100.0 %
    Extraction speed 2.6 X
    Track quality 100.0 %
    Test CRC E5CB389A
    Copy CRC E5CB389A
    Track not present in AccurateRip database
    Copy OK
    Track 18
    Filename F: StingCD118 If You Love Somebody Set Them Free.wav
    Pre-gap length 0: 00: 02.00
    Peak level 100.0 %
    Extraction speed 2.6 X
    Track quality 100.0 %
    Test CRC 980E6CB1
    Copy CRC 980E6CB1
    Track not present in AccurateRip database
    Copy OK
    Track 19
    Filename F: StingCD119 I Hung My Head.wav
    Pre-gap length 0: 00: 02.00
    Peak level 100.0 %
    Extraction speed 2.3 X
    Track quality 99.9 %
    Test CRC 9266AD4F
    Copy CRC 9266AD4F
    Track not present in AccurateRip database
    Copy OK
    None of the tracks are present in the AccurateRip database
    No errors occurred
    End of status report
    ==== Log checksum 818E7ED20366BD2D1E36AF67055ECE1C3E9E140368A54F823E450BD57F907763 ====

    REM GENRE Jazz, Rock, Pop
    REM DATE 2017
    REM DISCID 0A128213
    REM COMMENT ExactAudioCopy v1.0b3
    PERFORMER Sting
    TITLE Greatest Hits
    FILE 01 I Can\'t Stop Thinking About You.flac WAVE
    TRACK 01 AUDIO
    TITLE I Can\'t Stop Thinking About You
    PERFORMER Sting
    FLAGS DCP
    INDEX 01 00: 00: 00
    FILE 02 And Yet.flac WAVE
    TRACK 02 AUDIO
    TITLE And Yet
    PERFORMER Sting
    FLAGS DCP
    INDEX 01 00: 00: 00
    FILE 03 Send Your Love.flac WAVE
    TRACK 03 AUDIO
    TITLE Send Your Love
    PERFORMER Sting
    FLAGS DCP
    INDEX 01 00: 00: 00
    FILE 04 Shape Of My Heart.flac WAVE
    TRACK 04 AUDIO
    TITLE Shape Of My Heart
    PERFORMER Sting
    FLAGS DCP
    INDEX 01 00: 00: 00
    FILE 05 Mad About You.flac WAVE
    TRACK 05 AUDIO
    TITLE Mad About You
    PERFORMER Sting
    FLAGS DCP
    INDEX 01 00: 00: 00
    FILE 06 Roxanne.flac WAVE
    TRACK 06 AUDIO
    TITLE Roxanne
    PERFORMER Sting
    FLAGS DCP
    INDEX 01 00: 00: 00
    FILE 07 Soul Cake.flac WAVE
    TRACK 07 AUDIO
    TITLE Soul Cake
    PERFORMER Sting
    FLAGS DCP
    INDEX 01 00: 00: 00
    FILE 08 The Last Ship.flac WAVE
    TRACK 08 AUDIO
    TITLE The Last Ship
    PERFORMER Sting
    FLAGS DCP
    INDEX 01 00: 00: 00
    FILE 09 La Belle Dame Sans Regrets.flac WAVE
    TRACK 09 AUDIO
    TITLE La Belle Dame Sans Regrets
    PERFORMER Sting
    FLAGS DCP
    INDEX 01 00: 00: 00
    FILE 10 One Fine Day.flac WAVE
    TRACK 10 AUDIO
    TITLE One Fine Day
    PERFORMER Sting
    FLAGS DCP
    INDEX 01 00: 00: 00
    FILE 11 Dead Man\'s Boots.flac WAVE
    TRACK 11 AUDIO
    TITLE Dead Man\'s Boots
    PERFORMER Sting
    FLAGS DCP
    INDEX 01 00: 00: 00
    FILE 12 If I Ever Lose My Faith In You.flac WAVE
    TRACK 12 AUDIO
    TITLE If I Ever Lose My Faith In You
    PERFORMER Sting
    FLAGS DCP
    INDEX 01 00: 00: 00
    FILE 13 Seven Days.flac WAVE
    TRACK 13 AUDIO
    TITLE 13 Seven Days
    PERFORMER Sting
    FLAGS DCP
    INDEX 01 00: 00: 00
    FILE 14 Englishman In New York.flac WAVE
    TRACK 14 AUDIO
    TITLE Englishman In New York
    PERFORMER Sting
    FLAGS DCP
    INDEX 01 00: 00: 00
    FILE 15 Fields Of Gold.flac WAVE
    TRACK 15 AUDIO
    TITLE Fields Of Gold
    PERFORMER Sting
    FLAGS DCP
    INDEX 01 00: 00: 00
    FILE 16 Fragile.flac WAVE
    TRACK 16 AUDIO
    TITLE Fragile
    PERFORMER Sting
    FLAGS DCP
    INDEX 01 00: 00: 00
    FILE 17 The Hounds Of Winter.flac WAVE
    TRACK 17 AUDIO
    TITLE The Hounds Of Winter
    PERFORMER Sting
    FLAGS DCP
    INDEX 01 00: 00: 00
    FILE 18 If You Love Somebody Set Them Free.flac WAVE
    TRACK 18 AUDIO
    TITLE If You Love Somebody Set Them Free
    PERFORMER Sting
    FLAGS DCP
    INDEX 01 00: 00: 00
    FILE 19 I Hung My Head.flac WAVE
    TRACK 19 AUDIO
    TITLE I Hung My Head
    PERFORMER Sting
    FLAGS DCP
    INDEX 01 00: 00: 00

    -----------------------
    DON\'T MODIFY THIS FILE
    -----------------------
    PERFORMER: auCDtect Task Manager, ver. 1.5.1RC4 build 1.5.1.5
    Copyright (c) 2008-2010 y-soft. All rights reserved
    http://y-soft.org
    ANALYZER: auCDtect: CD records authenticity detector, version 0.8.2
    Copyright (c) 2004 Oleg Berngardt. All rights reserved.
    Copyright (c) 2004 Alexander Djourik. All rights reserved.
    FILE: 19 I Hung My Head.flac
    Size: 30079970 Hash: D17B2A7D7FB2D786B8A2B226653C911D Accuracy: -m0
    Conclusion: CDDA 100%
    Signature: 6931FE3B5B6589410EB087F458371B4DDA179A43
    FILE: 18 If You Love Somebody Set Them Free.flac
    Size: 32383438 Hash: A8187A39FD0E0A2D03EAFB9867D27991 Accuracy: -m0
    Conclusion: CDDA 100%
    Signature: DF88E8E1F970824B8C705A1786EB9E3A69FAE368
    FILE: 17 The Hounds Of Winter.flac
    Size: 35900816 Hash: F58DD2E21CEDB55A0823EE9E151C3868 Accuracy: -m0
    Conclusion: CDDA 100%
    Signature: 9C2B5EB9B9DC6F32FE7B71359F8945302F63CBFD
    FILE: 16 Fragile.flac
    Size: 24657762 Hash: 0046C64E520A4B54E4549A85E0CA8617 Accuracy: -m0
    Conclusion: CDDA 100%
    Signature: D01EA83A2C44838498BEC9FB515A32CC0AE6AD18
    FILE: 15 Fields Of Gold.flac
    Size: 23104521 Hash: DC982D23B3940D5741B3FD16C92C4F3A Accuracy: -m0
    Conclusion: CDDA 100%
    Signature: B9D978DF7E4115DCF1BA1CFC3289E1C44FA71306
    FILE: 14 Englishman In New York.flac
    Size: 30300112 Hash: CBC320659CCED0462B0F61A739CAAAEC Accuracy: -m0
    Conclusion: CDDA 100%
    Signature: FDEE5399C1C7B33AA188E9951C47373CC9F40BE4
    FILE: 13 Seven Days.flac
    Size: 32117589 Hash: 4B8E75910D7B65306E23CBC309BF824B Accuracy: -m0
    Conclusion: CDDA 100%
    Signature: 7A86EFF5FB409537CDF31D9984FB2410AB52AAFA
    FILE: 12 If I Ever Lose My Faith In You.flac
    Size: 31706187 Hash: 894C586D0B7C2671C1AADCE79785CBF7 Accuracy: -m0
    Conclusion: CDDA 100%
    Signature: 15C014F8193F2C50DF7FBA493EC44A9C7EAAD15D
    FILE: 11 Dead Man\'s Boots.flac
    Size: 22559200 Hash: 860B8A3F97FBA9DAF672E8002F228CF5 Accuracy: -m0
    Conclusion: CDDA 100%
    Signature: 6E0245EF6EA49B59F4C358F47C612EA905229B5B
    FILE: 10 One Fine Day.flac
    Size: 23885021 Hash: 929A74DA78DCAAD4191BB4A52F4842D4 Accuracy: -m0
    Conclusion: CDDA 100%
    Signature: E3F2468AB76590EE7C95B0966C7AEA287ABCC643
    FILE: 09 La Belle Dame Sans Regrets.flac
    Size: 35864447 Hash: F907F08D5A78852D2CC1DF606188AAB9 Accuracy: -m0
    Conclusion: CDDA 100%
    Signature: 2D89631E403507280EF76B126418270D1D7BCF68
    FILE: 08 The Last Ship.flac
    Size: 23841146 Hash: 4EF788E53AC7510C038FF20AE2274EB6 Accuracy: -m0
    Conclusion: CDDA 100%
    Signature: DFDC1E4EC87E66E2100378D7B552CDDCF658CD1D
    FILE: 07 Soul Cake.flac
    Size: 24374750 Hash: C8C04E1BC159308CC5E89EA84C2EC792 Accuracy: -m0
    Conclusion: CDDA 100%
    Signature: EF8F6E15C39394D90CD8A2EE173B95628D15D2D7
    FILE: 06 Roxanne.flac
    Size: 21102941 Hash: 01BD7B70CDF27C69B3646A9AD9756C10 Accuracy: -m0
    Conclusion: CDDA 100%
    Signature: 06A862BBA5D776C2A62A443CA1FF21DB9ADC715E
    FILE: 05 Mad About You.flac
    Size: 27697311 Hash: DE5F0B92F5B21B2C324E68AC7DBBF10A Accuracy: -m0
    Conclusion: CDDA 100%
    Signature: 4C20D1D6D3AF4BA220FDF04B4BC45650ECFFC953
    FILE: 04 Shape Of My Heart.flac
    Size: 29865749 Hash: F0BC05F4FA2E44273FFB602E4A918E8A Accuracy: -m0
    Conclusion: CDDA 99%
    Signature: C0DADF047A530DD68531CDD43B56694AA5B3197F
    FILE: 03 Send Your Love.flac
    Size: 33933671 Hash: 8FECBC74FEE7C8CD0474665F7A6DDFA8 Accuracy: -m0
    Conclusion: CDDA 99%
    Signature: B0334049C423F80C7E724AFE185E80039996B837
    FILE: 02 And Yet.flac
    Size: 25263074 Hash: DC8053C0CD24B0BB451E4AA3E5B42929 Accuracy: -m0
    Conclusion: CDDA 100%
    Signature: 7BE7D480D6A0DAE40265288967F6E67CA1C123F6
    FILE: 01 I Can\'t Stop Thinking About You.flac
    Size: 28184004 Hash: 6243E35EA624B8D3ECB7831A4A866905 Accuracy: -m0
    Conclusion: CDDA 100%
    Signature: 203883E52D6039ACF4453D9BB086660B546BADB8

    Прoдолжительность: 01: 19: 54

    Треклист

    01. Desert Rose
    02. Stolen Car
    03. After The Rain Has Fallen
    04. All This Time
    05. It\'s Probably Me
    06. Inside
    07. Brand New Day
    08. Love Is Stronger Than Justice
    09. She\'s Too Good For Me
    10. Whenever I Say Your Name
    11. Let\'s Your Soul Be Your Pilot
    12. When We Dance
    13. Love Is The Seventh Wave
    14. Big Lie Small World
    15. Everybody Laughed But You
    16. Tomorrow We\'ll See
    17. Moon Over Bourbon Street

    Exact Audio Copy V1.0 beta 3 from 29. August 2011
    EAC extraction logfile from 25. November 2017, 20: 49
    Sting/Greatest Hits
    Used drive : TSSTcorpDVD+-RW SN-208BB Adapter: 1 ID: 0
    Read mode : Secure
    Utilize accurate stream : Yes
    Defeat audio cache : Yes
    Make use of C2 pointers : No
    Read offset correction : 6
    Overread into Lead-In and Lead-Out : No
    Fill up missing offset samples with silence : Yes
    Delete leading and trailing silent blocks : No
    Null samples used in CRC calculations : Yes
    Used interface : Native Win32 interface for Win NT 2000
    Gap handling : Appended to next track
    Used output format : User Defined Encoder
    Selected bitrate : 768 kBit/s
    Quality : High
    Add ID3 tag : No
    Command line compressor : D: SoftAudioEACPortableAppEACFLACflac.exe
    Additional command line options : -8 -V -T TITLE=%title% -T ARTIST=%artist% -T ALBUMARTIST=%albumartist% -T ALBUM=%albumtitle% -T DATE=%year% -T TRACKNUMBER=%tracknr% -T TRACKTOTAL=%numtracks% -T GENRE=%genre% -T COMMENT=%comment% -T PERFORMER=%albuminterpret% -T COMPOSER=%composer% %source% -o %dest%
    TOC of the extracted CD
    Track | Start | Length | Start sector | End sector
    ---------------------------------------------------------
    1 | 0: 00.00 | 4: 44.48 | 0 | 21347
    2 | 4: 44.48 | 3: 54.30 | 21348 | 38927
    3 | 8: 39.03 | 5: 05.00 | 38928 | 61802
    4 | 13: 44.03 | 4: 49.04 | 61803 | 83481
    5 | 18: 33.07 | 4: 54.08 | 83482 | 105539
    6 | 23: 27.15 | 4: 47.47 | 105540 | 127111
    7 | 28: 14.62 | 6: 09.31 | 127112 | 154817
    8 | 34: 24.18 | 5: 04.05 | 154818 | 177622
    9 | 39: 28.23 | 2: 27.01 | 177623 | 188648
    10 | 41: 55.24 | 5: 20.03 | 188649 | 212651
    11 | 47: 15.27 | 6: 37.62 | 212652 | 242488
    12 | 53: 53.14 | 5: 20.10 | 242489 | 266498
    13 | 59: 13.24 | 3: 12.74 | 266499 | 280972
    14 | 62: 26.23 | 5: 06.03 | 280973 | 303925
    15 | 67: 32.26 | 3: 44.08 | 303926 | 320733
    16 | 71: 16.34 | 4: 42.73 | 320734 | 341956
    17 | 75: 59.32 | 3: 54.40 | 341957 | 359546
    Track 1
    Filename F: StingCD21 Desert Rose.wav
    Pre-gap length 0: 00: 02.00
    Peak level 78.0 %
    Extraction speed 1.2 X
    Track quality 100.0 %
    Test CRC 1C0C0FFB
    Copy CRC 1C0C0FFB
    Track not present in AccurateRip database
    Copy OK
    Track 2
    Filename F: StingCD22 Stolen Car.wav
    Peak level 65.8 %
    Extraction speed 1.2 X
    Track quality 99.9 %
    Test CRC BA32F1BD
    Copy CRC BA32F1BD
    Track not present in AccurateRip database
    Copy OK
    Track 3
    Filename F: StingCD23 After The Rain Has Fallen.wav
    Peak level 98.7 %
    Extraction speed 1.5 X
    Track quality 100.0 %
    Test CRC 44464F20
    Copy CRC 44464F20
    Track not present in AccurateRip database
    Copy OK
    Track 4
    Filename F: StingCD24 All This Time.wav
    Peak level 100.0 %
    Extraction speed 1.6 X
    Track quality 100.0 %
    Test CRC 2EF105BE
    Copy CRC 2EF105BE
    Track not present in AccurateRip database
    Copy OK
    Track 5
    Filename F: StingCD25 It\'s Probably Me.wav
    Peak level 100.0 %
    Extraction speed 1.6 X
    Track quality 99.9 %
    Test CRC 4E529897
    Copy CRC 4E529897
    Track not present in AccurateRip database
    Copy OK
    Track 6
    Filename F: StingCD26 Inside.wav
    Peak level 82.7 %
    Extraction speed 1.9 X
    Track quality 100.0 %
    Test CRC 2BEA7823
    Copy CRC 2BEA7823
    Track not present in AccurateRip database
    Copy OK
    Track 7
    Filename F: StingCD27 Brand New Day.wav
    Peak level 97.8 %
    Extraction speed 2.0 X
    Track quality 100.0 %
    Test CRC E78E2091
    Copy CRC E78E2091
    Track not present in AccurateRip database
    Copy OK
    Track 8
    Filename F: StingCD28 Love Is Stronger Than Justice.wav
    Peak level 100.0 %
    Extraction speed 2.1 X
    Track quality 100.0 %
    Test CRC 0C208206
    Copy CRC 0C208206
    Track not present in AccurateRip database
    Copy OK
    Track 9
    Filename F: StingCD29 She\'s Too Good For Me.wav
    Peak level 100.0 %
    Extraction speed 1.9 X
    Track quality 100.0 %
    Test CRC 4AEED2CD
    Copy CRC 4AEED2CD
    Track not present in AccurateRip database
    Copy OK
    Track 10
    Filename F: StingCD210 Whenever I Say Your Name.wav
    Peak level 93.2 %
    Extraction speed 2.0 X
    Track quality 99.9 %
    Test CRC 675BDF61
    Copy CRC 675BDF61
    Track not present in AccurateRip database
    Copy OK
    Track 11
    Filename F: StingCD211 Let\'s Your Soul Be Your Pilot.wav
    Peak level 98.1 %
    Extraction speed 0.3 X
    Track quality 100.0 %
    Test CRC 5C58C907
    Copy CRC 5C58C907
    Track not present in AccurateRip database
    Copy OK
    Track 12
    Filename F: StingCD212 When We Dance.wav
    Peak level 100.0 %
    Extraction speed 2.4 X
    Track quality 100.0 %
    Test CRC CABCD69C
    Copy CRC CABCD69C
    Track not present in AccurateRip database
    Copy OK
    Track 13
    Filename F: StingCD213 Love Is The Seventh Wave.wav
    Peak level 100.0 %
    Extraction speed 2.3 X
    Track quality 100.0 %
    Test CRC E8652797
    Copy CRC E8652797
    Track not present in AccurateRip database
    Copy OK
    Track 14
    Filename F: StingCD214 Big Lie Small World.wav
    Peak level 100.0 %
    Extraction speed 2.5 X
    Track quality 100.0 %
    Test CRC A45E294D
    Copy CRC A45E294D
    Track not present in AccurateRip database
    Copy OK
    Track 15
    Filename F: StingCD215 Everybody Laughed But You.wav
    Peak level 100.0 %
    Extraction speed 2.2 X
    Track quality 99.9 %
    Test CRC DA55CE85
    Copy CRC DA55CE85
    Track not present in AccurateRip database
    Copy OK
    Track 16
    Filename F: StingCD216 Tomorrow We\'ll See.wav
    Peak level 100.0 %
    Extraction speed 2.6 X
    Track quality 100.0 %
    Test CRC C1E8F007
    Copy CRC C1E8F007
    Track not present in AccurateRip database
    Copy OK
    Track 17
    Filename F: StingCD217 Moon Over Bourbon Street.wav
    Peak level 100.0 %
    Extraction speed 2.5 X
    Track quality 100.0 %
    Test CRC D969EEA4
    Copy CRC D969EEA4
    Track not present in AccurateRip database
    Copy OK
    None of the tracks are present in the AccurateRip database
    No errors occurred
    End of status report
    ==== Log checksum 723D44401B793AE7418D08E1FB4A6E554BFA89DD872508006032806A57FBC4B5 ====

    REM GENRE Jazz, Rock, Pop
    REM DATE 2017
    REM DISCID FA12B911
    REM COMMENT ExactAudioCopy v1.0b3
    PERFORMER Sting
    TITLE Greatest Hits
    FILE 01 Desert Rose.flac WAVE
    TRACK 01 AUDIO
    TITLE Desert Rose
    PERFORMER Sting
    FLAGS DCP
    INDEX 01 00: 00: 00
    FILE 02 Stolen Car.flac WAVE
    TRACK 02 AUDIO
    TITLE Stolen Car
    PERFORMER Sting
    FLAGS DCP
    INDEX 01 00: 00: 00
    FILE 03 After The Rain Has Fallen.flac WAVE
    TRACK 03 AUDIO
    TITLE After The Rain Has Fallen
    PERFORMER Sting
    FLAGS DCP
    INDEX 01 00: 00: 00
    FILE 04 All This Time.flac WAVE
    TRACK 04 AUDIO
    TITLE All This Time
    PERFORMER Sting
    FLAGS DCP
    INDEX 01 00: 00: 00
    FILE 05 It\'s Probably Me.flac WAVE
    TRACK 05 AUDIO
    TITLE It\'s Probably Me
    PERFORMER Sting
    FLAGS DCP
    INDEX 01 00: 00: 00
    FILE 06 Inside.flac WAVE
    TRACK 06 AUDIO
    TITLE Inside
    PERFORMER Sting
    FLAGS DCP
    INDEX 01 00: 00: 00
    FILE 07 Brand New Day.flac WAVE
    TRACK 07 AUDIO
    TITLE Brand New Day
    PERFORMER Sting
    FLAGS DCP
    INDEX 01 00: 00: 00
    FILE 08 Love Is Stronger Than Justice.flac WAVE
    TRACK 08 AUDIO
    TITLE Love Is Stronger Than Justice
    PERFORMER Sting
    FLAGS DCP
    INDEX 01 00: 00: 00
    FILE 09 She\'s Too Good For Me.flac WAVE
    TRACK 09 AUDIO
    TITLE She\'s Too Good For Me
    PERFORMER Sting
    FLAGS DCP
    INDEX 01 00: 00: 00
    FILE 10 Whenever I Say Your Name.flac WAVE
    TRACK 10 AUDIO
    TITLE Whenever I Say Your Name
    PERFORMER Sting
    FLAGS DCP
    INDEX 01 00: 00: 00
    FILE 11 Let\'s Your Soul Be Your Pilot.flac WAVE
    TRACK 11 AUDIO
    TITLE Let\'s Your Soul Be Your Pilot
    PERFORMER Sting
    FLAGS DCP
    INDEX 01 00: 00: 00
    FILE 12 When We Dance.flac WAVE
    TRACK 12 AUDIO
    TITLE When We Dance
    PERFORMER Sting
    FLAGS DCP
    INDEX 01 00: 00: 00
    FILE 13 Love Is The Seventh Wave.flac WAVE
    TRACK 13 AUDIO
    TITLE Love Is The Seventh Wave
    PERFORMER Sting
    FLAGS DCP
    INDEX 01 00: 00: 00
    FILE 14 Big Lie Small World.flac WAVE
    TRACK 14 AUDIO
    TITLE Big Lie Small World
    PERFORMER Sting
    FLAGS DCP
    INDEX 01 00: 00: 00
    FILE 15 Everybody Laughed But You.flac WAVE
    TRACK 15 AUDIO
    TITLE Everybody Laughed But You
    PERFORMER Sting
    FLAGS DCP
    INDEX 01 00: 00: 00
    FILE 16 Tomorrow We\'ll See.flac WAVE
    TRACK 16 AUDIO
    TITLE Tomorrow We\'ll See
    PERFORMER Sting
    FLAGS DCP
    INDEX 01 00: 00: 00
    FILE 17 Moon Over Bourbon Street.flac WAVE
    TRACK 17 AUDIO
    TITLE Moon Over Bourbon Street
    PERFORMER Sting
    FLAGS DCP
    INDEX 01 00: 00: 00

    -----------------------
    DON\'T MODIFY THIS FILE
    -----------------------
    PERFORMER: auCDtect Task Manager, ver. 1.5.1RC4 build 1.5.1.5
    Copyright (c) 2008-2010 y-soft. All rights reserved
    http://y-soft.org
    ANALYZER: auCDtect: CD records authenticity detector, version 0.8.2
    Copyright (c) 2004 Oleg Berngardt. All rights reserved.
    Copyright (c) 2004 Alexander Djourik. All rights reserved.
    FILE: 17 Moon Over Bourbon Street.flac
    Size: 22813983 Hash: F7251D2770135FF308783CF002225DBD Accuracy: -m0
    Conclusion: CDDA 100%
    Signature: 64F4AF8F932AF95007D4C9686A15FF798CE8C2B8
    FILE: 16 Tomorrow We\'ll See.flac
    Size: 32946874 Hash: 3C19A8A997C8BD61A70E73DC9F6D3811 Accuracy: -m0
    Conclusion: CDDA 99%
    Signature: A47CB1A74425BF052626F8134224F1FB3A3AF14A
    FILE: 15 Everybody Laughed But You.flac
    Size: 25537762 Hash: C3862A0D7F035984396CA73EEEB9E8A1 Accuracy: -m0
    Conclusion: CDDA 100%
    Signature: C536AD55352E39A73F647D77B0E696F240F2E9F2
    FILE: 14 Big Lie Small World.flac
    Size: 36155148 Hash: 10148BE748FE3DA96055A2346EBCA632 Accuracy: -m0
    Conclusion: CDDA 100%
    Signature: E3FE606FB49545E572539BBF0E5822C8F17AF8FC
    FILE: 13 Love Is The Seventh Wave.flac
    Size: 23803599 Hash: E6909BA4B90C8438B8BB739402451AF9 Accuracy: -m0
    Conclusion: CDDA 100%
    Signature: E47146FE2E09C253365CB4FE4886ED2DC1B8594F
    FILE: 12 When We Dance.flac
    Size: 33427670 Hash: 68BB02EFC55CC059868F4CD12A21379C Accuracy: -m0
    Conclusion: CDDA 100%
    Signature: E3E588895F0F1136E5F308FE1EE75DAEDEFB2067
    FILE: 11 Let\'s Your Soul Be Your Pilot.flac
    Size: 44082893 Hash: 167F08230F114DF3C8834E7EED193409 Accuracy: -m0
    Conclusion: CDDA 100%
    Signature: BFE26807273536E179282ED8C30E49263811447D
    FILE: 10 Whenever I Say Your Name.flac
    Size: 36405188 Hash: 96AC4A2C134E9401CC2824E87B334C79 Accuracy: -m0
    Conclusion: CDDA 100%
    Signature: A6FA7E54547450C4E65381D1D1E5BBBA26C18EA2
    FILE: 09 She\'s Too Good For Me.flac
    Size: 16755244 Hash: 9A14E600D38D218E46ACCBC9ED0A59C9 Accuracy: -m0
    Conclusion: CDDA 100%
    Signature: 5D41FC0BCE1030901FEB2FFF3DC309B95B893923
    FILE: 08 Love Is Stronger Than Justice.flac
    Size: 37083631 Hash: 9DF3B5B7D6D6FC0251B8B16DAC07FCDA Accuracy: -m0
    Conclusion: CDDA 100%
    Signature: 9FF8DE2C5F5AA53B8D90685CD42353E376AADF8D
    FILE: 07 Brand New Day.flac
    Size: 42830167 Hash: 27287C0D370BA0DE0FA5A5B331F37293 Accuracy: -m0
    Conclusion: CDDA 100%
    Signature: D9FF227B751188A1AE8D2A906EEDA8979D820641
    FILE: 06 Inside.flac
    Size: 34563486 Hash: F296565357B4A1D5E769F83A8CDBBDB2 Accuracy: -m0
    Conclusion: CDDA 100%
    Signature: A2A675B31D84E71061376E6D04AA0FDA45E84DBC
    FILE: 05 It\'s Probably Me.flac
    Size: 32632816 Hash: 82DC89DE02D6140423A9E5EC2FF27870 Accuracy: -m0
    Conclusion: CDDA 100%
    Signature: F9499B457F20B421F1814F8E6003305027DF81EA
    FILE: 04 All This Time.flac
    Size: 34406134 Hash: 60656B5ADBD978AA697EB60F00F27B77 Accuracy: -m0
    Conclusion: CDDA 100%
    Signature: 6564D2B13FC951FAED9CF78E70FB93891AACC90E
    FILE: 03 After The Rain Has Fallen.flac
    Size: 35408891 Hash: 0BE35AAE0E4526F259AD4A4D9165B54F Accuracy: -m0
    Conclusion: CDDA 100%
    Signature: 3D1A74A59C30A2AA528F363922C0A6AF87750EA0
    FILE: 02 Stolen Car.flac
    Size: 27004547 Hash: F274CFDB92C79F7712202CC938ADD00F Accuracy: -m0
    Conclusion: CDDA 100%
    Signature: 17DAFE43CA8437A5D235D564F19C88A2B65E50BE
    FILE: 01 Desert Rose.flac
    Size: 33982413 Hash: 0289C088B9A11E8777A05AD356D589B1 Accuracy: -m0
    Conclusion: CDDA 100%
    Signature: D0BB03328CF8711A0E9DC94556F856D346D56AAF
    Время раздачи: 24/7 (до появления первых 3-5 скачавших)


    Поглощение/вытеснение
    Только с согласия релизера

    Bigbeer


    Sting - Greatest Hits [2CD] (2017) [FLAC|Lossless|tracks + .cue] <Jazz, Rock, Pop>
    загрузка...
    Рейтинг →
     (голосов: 1, оценка 4/5, голосовать можно 1 раз )

    Другие торренты по теме:

  • Sting - Greatest Hits (2017) 2CD [MP3|320 Kbps] <Rock, Pop>


    • Комментарии (0):

      Информация

      Информация

        Посетители, находящиеся в группе Гости, не могут оставлять комментарии в данной новости.

        ↓ Меню




        ↓ Опрос

        Вы добавили сайт в закладки?
        Да
        Нет


        Top 10 за месяц (Музыка)

        U2 - Songs Of Experience (2017) Deluxe Edition [MP3|320 Kbps] <Classic Rock>

        (скачиваний: 11)
        Fools Garden (Fools Garden) - 9 Альбомов, 12 Синглов (1993 - 2015) [MP3|320 кб / с]<Rock, Pop Rock>

        (скачиваний: 9)
        Bob Seger - 23 альбома (1969 - 2014) [FLAC|WAVPack|Lossless]<Classic Rock> скачать через торрент бесплатно

        (скачиваний: 9)
        Павел Пламенев - Неофициальный сборник песен (2014 - 2016) [MP3|192 кб / с] <русский рок, рок>

        (скачиваний: 9)
        George Otsuka Trio - Page 1 (1967) 2014, Nippon Columbia [FLAC|Lossless|tracks + .cue] <Post-Bop>

        (скачиваний: 9)
        Марина Девятова - В день рождения с любовью... (Юбилейный концерт) (2013) WEBRip [H.264 / 720p-LQ]скачать через торрент бесплатно

        (скачиваний: 7)
        VA - Festival Alfa Future People (2016) [MP3|320 Kbps] <Trance, House, Club>

        (скачиваний: 6)
        Коллекция клипов в авто (RUS) (2DIN) (2000-2015) HDTVRip

        (скачиваний: 6)
        Ten Years After - 11 Studio, 4 Live Albums, 8 Compilation, 2 Box Set [50 CD] (1967 - 2014) 47CD [FLAC|Lossless|image + .cue]<Classic Rock, Blues-Rock>

        (скачиваний: 6)
        Сборник видеоклипов от ©BSV Labs.™ (upd 03.03.2015) / РУССКИЕ КЛИПЫ / 1258 штук / 1950 - 2015 / Поп, Рок, Ретро и др. / BDRip, DVDRip, TVRip, SATRip и др. скачать через торрент бесплатно

        (скачиваний: 6)