.
Авторизация | Регистрация
Хочешь лучшие торренты? Добавь свой email!
Добавить

Торрент скачать бесплатно

» » Stan Kenton - Adventures In Jazz (1961) 1999, Capitol [FLAC|Lossless|tracks + .cue] <Big Band, Mainstream Jazz> торрент скачать бесплатно




    Stan Kenton - Adventures In Jazz (1961) 1999, Capitol [FLAC|Lossless|tracks + .cue] <Big Band, Mainstream Jazz> торрент скачать бесплатно

    Опубликовал: Админ | Дата: 29-11-2017, 05:00 | Просмотров: 0

    Жанр: Big Band, Mainstream Jazz
    Издание: Capitol - 7243 5 21222 26
    Продолжительность: 00: 53: 16
    Кодек: FLAC (tracks+.cue)
    Битрейт: Lossless
    Источник (релизер): papa1954
    Страна-производитель диска: USA
    Наличие сканов в содержимом раздачи: нет

    Треклист

    01. Turtle Talk 05: 33
    02. Stairway To The Stars 05: 51
    03. Limehouse Blues 04: 30
    04. Malaguena 04: 26
    05. Misty 03: 38
    06. Waltz Of The Prophets 06: 46
    07. Body And Soul 05: 21
    08. It Might As Well Be Spring 05: 18
    09. Waltz Of The Prophets (First Version) 06: 33
    10. Body And Soul (First Version) 05: 25

    X Lossless Decoder version 20120407 (140.0)
    XLD extraction logfile from 2012-04-11 19: 05: 06 -0700
    Stan Kenton/Adventures In Jazz
    Used drive : PIONEER DVD-RW DVRTS08 (revision Q81B)
    Ripper mode : XLD Secure Ripper
    Disable audio cache : OK for the drive with a cache less than 1375KiB
    Make use of C2 pointers : NO
    Read offset correction : 48
    Max retry count : 100
    Gap status : Analyzed, Appended (except HTOA)
    TOC of the extracted CD
    Track | Start | Length | Start sector | End sector
    ---------------------------------------------------------
    1 | 00: 00: 00 | 05: 32: 72 | 0 | 24971
    2 | 05: 32: 72 | 05: 50: 13 | 24972 | 51234
    3 | 11: 23: 10 | 04: 29: 02 | 51235 | 71411
    4 | 15: 52: 12 | 04: 25: 03 | 71412 | 91289
    5 | 20: 17: 15 | 03: 37: 62 | 91290 | 107626
    6 | 23: 55: 02 | 06: 45: 63 | 107627 | 138064
    7 | 30: 40: 65 | 05: 20: 22 | 138065 | 162086
    8 | 36: 01: 12 | 05: 17: 20 | 162087 | 185881
    9 | 41: 18: 32 | 06: 32: 20 | 185882 | 215301
    10 | 47: 50: 52 | 05: 24: 28 | 215302 | 239629
    List of alternate offset correction values
    # | Absolute | Relative | Confidence
    ------------------------------------------
    1 | 96 | 48 | 10
    AccurateRip Summary
    Track 01 : OK (AR2, confidence 2, with different offset)
    Track 02 : OK (AR2, confidence 2, with different offset)
    Track 03 : OK (AR2, confidence 2, with different offset)
    Track 04 : OK (AR2, confidence 2, with different offset)
    Track 05 : OK (AR2, confidence 2, with different offset)
    Track 06 : OK (AR2, confidence 2, with different offset)
    Track 07 : OK (AR2, confidence 2, with different offset)
    Track 08 : OK (AR2, confidence 2, with different offset)
    Track 09 : OK (AR2, confidence 2, with different offset)
    Track 10 : OK (AR2, confidence 2, with different offset)
    -All tracks accurately ripped.
    All Tracks
    Album gain : -6.05 dB
    Peak : 0.988556
    Statistics
    Read error : 0
    Jitter error (maybe fixed) : 0
    Retry sector count : 0
    Damaged sector count : 0
    Track 01
    Filename : /Volumes/redrum/rips/Stan Kenton - 1961 - Adventures In Jazz FLAC/01 Turtle Talk.flac
    /Volumes/redrum/rips/Stan Kenton - 1961 - Adventures In Jazz V0/01 Turtle Talk.mp3
    Pre-gap length : 00: 02: 00
    Track gain : -6.40 dB
    Peak : 0.988556
    CRC32 hash (test run) : DA0301EA
    CRC32 hash : DA0301EA
    CRC32 hash (skip zero) : 114EC468
    AccurateRip signature : A9811D86
    -Accurately ripped! (AR2, confidence 2)
    (matched with the different offset correction value;
    calculated using an additional offset of 48;
    the signature after correction is: AC8780A6)
    Statistics
    Read error : 0
    Jitter error (maybe fixed) : 0
    Retry sector count : 0
    Damaged sector count : 0
    Track 02
    Filename : /Volumes/redrum/rips/Stan Kenton - 1961 - Adventures In Jazz FLAC/02 Stairway To The Stars.flac
    /Volumes/redrum/rips/Stan Kenton - 1961 - Adventures In Jazz V0/02 Stairway To The Stars.mp3
    Track gain : -4.26 dB
    Peak : 0.980133
    CRC32 hash (test run) : D69888CB
    CRC32 hash : D69888CB
    CRC32 hash (skip zero) : 934B8A9C
    AccurateRip signature : 7A6C7457
    -Accurately ripped! (AR2, confidence 2)
    (matched with the different offset correction value;
    calculated using an additional offset of 48;
    the signature after correction is: 6CB1A7DD)
    Statistics
    Read error : 0
    Jitter error (maybe fixed) : 0
    Retry sector count : 0
    Damaged sector count : 0
    Track 03
    Filename : /Volumes/redrum/rips/Stan Kenton - 1961 - Adventures In Jazz FLAC/03 Limehouse Blues.flac
    /Volumes/redrum/rips/Stan Kenton - 1961 - Adventures In Jazz V0/03 Limehouse Blues.mp3
    Pre-gap length : 00: 01: 30
    Track gain : -6.33 dB
    Peak : 0.988556
    CRC32 hash (test run) : 21195623
    CRC32 hash : 21195623
    CRC32 hash (skip zero) : 5EB01ACF
    AccurateRip signature : 682676AE
    -Accurately ripped! (AR2, confidence 2)
    (matched with the different offset correction value;
    calculated using an additional offset of 48;
    the signature after correction is: 5CF0417F)
    Statistics
    Read error : 0
    Jitter error (maybe fixed) : 0
    Retry sector count : 0
    Damaged sector count : 0
    Track 04
    Filename : /Volumes/redrum/rips/Stan Kenton - 1961 - Adventures In Jazz FLAC/04 Malaguena.flac
    /Volumes/redrum/rips/Stan Kenton - 1961 - Adventures In Jazz V0/04 Malaguena.mp3
    Pre-gap length : 00: 01: 17
    Track gain : -7.61 dB
    Peak : 0.988556
    CRC32 hash (test run) : 8394C1BC
    CRC32 hash : 8394C1BC
    CRC32 hash (skip zero) : 0E54D88C
    AccurateRip signature : 88C14DA0
    -Accurately ripped! (AR2, confidence 2)
    (matched with the different offset correction value;
    calculated using an additional offset of 48;
    the signature after correction is: 3BD0EFA1)
    Statistics
    Read error : 0
    Jitter error (maybe fixed) : 0
    Retry sector count : 0
    Damaged sector count : 0
    Track 05
    Filename : /Volumes/redrum/rips/Stan Kenton - 1961 - Adventures In Jazz FLAC/05 Misty.flac
    /Volumes/redrum/rips/Stan Kenton - 1961 - Adventures In Jazz V0/05 Misty.mp3
    Pre-gap length : 00: 02: 15
    Track gain : -2.55 dB
    Peak : 0.873352
    CRC32 hash (test run) : AC118FFA
    CRC32 hash : AC118FFA
    CRC32 hash (skip zero) : 0FF316B8
    AccurateRip signature : 56529588
    -Accurately ripped! (AR2, confidence 2)
    (matched with the different offset correction value;
    calculated using an additional offset of 48;
    the signature after correction is: 70FFBDE8)
    Statistics
    Read error : 0
    Jitter error (maybe fixed) : 0
    Retry sector count : 0
    Damaged sector count : 0
    Track 06
    Filename : /Volumes/redrum/rips/Stan Kenton - 1961 - Adventures In Jazz FLAC/06 Waltz Of The Prophets.flac
    /Volumes/redrum/rips/Stan Kenton - 1961 - Adventures In Jazz V0/06 Waltz Of The Prophets.mp3
    Pre-gap length : 00: 01: 55
    Track gain : -5.96 dB
    Peak : 0.988556
    CRC32 hash (test run) : D24B0679
    CRC32 hash : D24B0679
    CRC32 hash (skip zero) : DFFC14F2
    AccurateRip signature : D755240C
    -Accurately ripped! (AR2, confidence 2)
    (matched with the different offset correction value;
    calculated using an additional offset of 48;
    the signature after correction is: 463DA682)
    Statistics
    Read error : 0
    Jitter error (maybe fixed) : 0
    Retry sector count : 0
    Damaged sector count : 0
    Track 07
    Filename : /Volumes/redrum/rips/Stan Kenton - 1961 - Adventures In Jazz FLAC/07 Body And Soul.flac
    /Volumes/redrum/rips/Stan Kenton - 1961 - Adventures In Jazz V0/07 Body And Soul.mp3
    Pre-gap length : 00: 01: 38
    Track gain : -4.82 dB
    Peak : 0.946075
    CRC32 hash (test run) : 238F1F99
    CRC32 hash : 238F1F99
    CRC32 hash (skip zero) : 7C0F3944
    AccurateRip signature : 218F629D
    -Accurately ripped! (AR2, confidence 2)
    (matched with the different offset correction value;
    calculated using an additional offset of 48;
    the signature after correction is: 04217871)
    Statistics
    Read error : 0
    Jitter error (maybe fixed) : 0
    Retry sector count : 0
    Damaged sector count : 0
    Track 08
    Filename : /Volumes/redrum/rips/Stan Kenton - 1961 - Adventures In Jazz FLAC/08 It Might As Well Be Spring.flac
    /Volumes/redrum/rips/Stan Kenton - 1961 - Adventures In Jazz V0/08 It Might As Well Be Spring.mp3
    Pre-gap length : 00: 01: 15
    Track gain : -5.75 dB
    Peak : 0.974548
    CRC32 hash (test run) : C3639101
    CRC32 hash : C3639101
    CRC32 hash (skip zero) : CB64F5BB
    AccurateRip signature : 5C408D5D
    -Accurately ripped! (AR2, confidence 2)
    (matched with the different offset correction value;
    calculated using an additional offset of 48;
    the signature after correction is: DD3E9CB9)
    Statistics
    Read error : 0
    Jitter error (maybe fixed) : 0
    Retry sector count : 0
    Damaged sector count : 0
    Track 09
    Filename : /Volumes/redrum/rips/Stan Kenton - 1961 - Adventures In Jazz FLAC/09 Waltz Of The Prophets (First Version).flac
    /Volumes/redrum/rips/Stan Kenton - 1961 - Adventures In Jazz V0/09 Waltz Of The Prophets (First Version).mp3
    Pre-gap length : 00: 01: 55
    Track gain : -4.52 dB
    Peak : 0.988556
    CRC32 hash (test run) : B24DFD51
    CRC32 hash : B24DFD51
    CRC32 hash (skip zero) : D78ED363
    AccurateRip signature : 3017ADCC
    -Accurately ripped! (AR2, confidence 2)
    (matched with the different offset correction value;
    calculated using an additional offset of 48;
    the signature after correction is: 997AA89D)
    Statistics
    Read error : 0
    Jitter error (maybe fixed) : 0
    Retry sector count : 0
    Damaged sector count : 0
    Track 10
    Filename : /Volumes/redrum/rips/Stan Kenton - 1961 - Adventures In Jazz FLAC/10 Body And Soul (First Version).flac
    /Volumes/redrum/rips/Stan Kenton - 1961 - Adventures In Jazz V0/10 Body And Soul (First Version).mp3
    Pre-gap length : 00: 01: 20
    Track gain : -6.52 dB
    Peak : 0.984528
    CRC32 hash (test run) : 6BE38B55
    CRC32 hash : 6BE38B55
    CRC32 hash (skip zero) : A710C7F9
    AccurateRip signature : 5469E799
    -Accurately ripped! (AR2, confidence 2)
    (matched with the different offset correction value;
    calculated using an additional offset of 48;
    the signature after correction is: 8471EF3C)
    Statistics
    Read error : 0
    Jitter error (maybe fixed) : 0
    Retry sector count : 0
    Damaged sector count : 0
    No errors occurred
    End of status report

    PERFORMER Stan Kenton
    TITLE Adventures In Jazz
    CATALOG 0724352122226
    REM GENRE Jazz
    REM DATE 1961
    REM DISCID 890C7B0A
    FILE 01. Turtle Talk.flac WAVE
    TRACK 01 AUDIO
    TITLE Turtle Talk
    SONGWRITER Dee Barton
    INDEX 01 00: 00: 00
    FILE 02. Stairway To The Stars.flac WAVE
    TRACK 02 AUDIO
    TITLE Stairway To The Stars
    SONGWRITER Matt Malneck/Frank Signorelli/Mitchell Parish
    INDEX 01 00: 00: 00
    TRACK 03 AUDIO
    TITLE Limehouse Blues
    SONGWRITER Philip Braham/Douglas Furber
    INDEX 00 05: 48: 58
    FILE 03. Limehouse Blues.flac WAVE
    INDEX 01 00: 00: 00
    TRACK 04 AUDIO
    TITLE Malaguena
    SONGWRITER Lecuona
    INDEX 00 04: 27: 60
    FILE 04. Malaguena.flac WAVE
    INDEX 01 00: 00: 00
    TRACK 05 AUDIO
    TITLE Misty
    SONGWRITER Johnny Burke/Erroll Garner
    INDEX 00 04: 22: 63
    FILE 05. Misty.flac WAVE
    INDEX 01 00: 00: 00
    TRACK 06 AUDIO
    TITLE Waltz Of The Prophets
    SONGWRITER Dee Barton
    INDEX 00 03: 36: 07
    FILE 06. Waltz Of The Prophets.flac WAVE
    INDEX 01 00: 00: 00
    TRACK 07 AUDIO
    TITLE Body And Soul
    SONGWRITER Robert Sour/Frank Eyton/John Green/Edward Heyman
    INDEX 00 06: 44: 25
    FILE 07. Body And Soul.flac WAVE
    INDEX 01 00: 00: 00
    TRACK 08 AUDIO
    TITLE It Might As Well Be Spring
    SONGWRITER Oscar Hammerstein II/Richard Rodgers
    INDEX 00 05: 19: 07
    FILE 08. It Might As Well Be Spring.flac WAVE
    INDEX 01 00: 00: 00
    TRACK 09 AUDIO
    TITLE Waltz Of The Prophets (First Version)
    SONGWRITER Dee Barton
    INDEX 00 05: 15: 40
    FILE 09. Waltz Of The Prophets (First Version).flac WAVE
    INDEX 01 00: 00: 00
    TRACK 10 AUDIO
    TITLE Body And Soul (First Version)
    SONGWRITER Edward Heyman/John Green/Frank Eyton/Robert Sour
    INDEX 00 06: 31: 00
    FILE 10. Body And Soul (First Version).flac WAVE
    INDEX 01 00: 00: 00

    -----------------------
    DON\'T MODIFY THIS FILE
    -----------------------
    PERFORMER: auCDtect Task Manager, ver. 1.6.0 RC1 build 1.6.0.1
    Copyright (c) 2008-2010 y-soft. All rights reserved
    http://y-soft.org
    ANALYZER: auCDtect: CD records authenticity detector, version 0.8.2
    Copyright (c) 2004 Oleg Berngardt. All rights reserved.
    Copyright (c) 2004 Alexander Djourik. All rights reserved.
    FILE: 10. Body And Soul (First Version).flac
    Size: 33646127 Hash: 55FAE8C722AED30EF4300DB6F2107F4B Accuracy: -m0
    Conclusion: CDDA 100%
    Signature: 5E70ADC8011D48F86FA1FC2FA063BCA60E7168C9
    FILE: 09. Waltz Of The Prophets (First Version).flac
    Size: 39175641 Hash: 3F86DAEE02C711323D6449C5F0103D60 Accuracy: -m0
    Conclusion: CDDA 100%
    Signature: 6AC864214EDB83A8585B838A190879E21530B00A
    FILE: 08. It Might As Well Be Spring.flac
    Size: 31233134 Hash: 7146FEC85D987FA81E58B73DB7AC2F46 Accuracy: -m0
    Conclusion: CDDA 100%
    Signature: DC9E7834BE88E64D1CE95D15A47F680FB253EEBF
    FILE: 07. Body And Soul.flac
    Size: 32200094 Hash: C0FFCFDAAB24E1E05360F14B1AE76019 Accuracy: -m0
    Conclusion: CDDA 100%
    Signature: B834A69C624DF8F80ED071C124D0F3C64C7087C1
    FILE: 06. Waltz Of The Prophets.flac
    Size: 44019106 Hash: 7D5111F0DF6D8F810A9306C2628C4E4F Accuracy: -m0
    Conclusion: CDDA 100%
    Signature: EDBF1AED60B14D692DA6C5A8871D31012C66AB52
    FILE: 05. Misty.flac
    Size: 19996013 Hash: 6EE2C1451904AB8323DED5B7759FB06D Accuracy: -m0
    Conclusion: CDDA 100%
    Signature: 39082FC2B352DEE13CB9AB8F96096B1F5D22BD71
    FILE: 04. Malaguena.flac
    Size: 32155239 Hash: 6EA65B36B9FC080E15741607C30A798A Accuracy: -m0
    Conclusion: CDDA 100%
    Signature: 641C660D162F1C45785E409194A2AFDBFC1478B0
    FILE: 03. Limehouse Blues.flac
    Size: 31558428 Hash: 0CAE86DD0EDA493A80E4A3F38D8DD31D Accuracy: -m0
    Conclusion: CDDA 100%
    Signature: 9AFE56065EA29F0110B0A1387A70FB5DC05F87B1
    FILE: 02. Stairway To The Stars.flac
    Size: 34278845 Hash: 9FBD9250843245A53C16056C577373F0 Accuracy: -m0
    Conclusion: CDDA 100%
    Signature: 09F2887B48305E6DDDDA26DB2BAC5BC5B5BA4DA4
    FILE: 01. Turtle Talk.flac
    Size: 37186910 Hash: D374BF691237E764B8B07C1275207EF1 Accuracy: -m0
    Conclusion: CDDA 100%
    Signature: 99B2F742641D1DCF2367240E7A85F23071C11A08




    Поглощение/вытеснение
    Только с согласия релизера

    gvm55
    Время раздачи: c 15: 00 до 22: 00 (до появления первых 3-5 скачавших)


    Stan Kenton - Adventures In Jazz (1961) 1999, Capitol [FLAC|Lossless|tracks + .cue] <Big Band, Mainstream Jazz>
    загрузка...
    Рейтинг →
     (голосов: 1, оценка 4/5, голосовать можно 1 раз )

    Другие торренты по теме:

  • Stan Kenton - The Complete Capitol Studio Recordings Of Stan Kenton 1943-47 (1995) 7CD, Mosaic Records [FLAC|Lossless|tracks + .cue] <Swing, Big Band>
  • Stan Kenton - Artistry In Bossa Nova (1963) Remaster, 2013, Universal[FLAC|Lossless|tracks + .cue] <Big Band>
  • Stan Kenton Orchestra - The Stuttgart Experience (1972) 2016, Jazz Haus[FLAC|Lossless|tracks + .cue] <Modern Big Band>
  • Stan Kenton - Jazz Anthology (1952-1956) Remaster, 2007, Promo Sound[FLAC|Lossless|tracks + .cue] <Third Stream, Bop, Big Band>
  • Stan Kenton - The Lost Concert Vol. I & II (1978) 2CD, 1999, Jazz Heritage [FLAC|Lossless|tracks + .cue] <Big Band, Mainstream Jazz>
  • Stan Kenton - Adventures In Blues (1960, 1961) 1999, Capitol [FLAC|Lossless|tracks + .cue] <Big Band, Mainstream Jazz>
  • Stan Kenton - Summer Of 51 (1987) Garland [FLAC|Lossless|tracks + .cue] <Big Band, Progressive Jazz>
  • Stan Kenton - New Concepts of Artistry in Rhythm (1952) 1989, Capitol [FLAC|Lossless|tracks + .cue] <Big Band, Progressive Jazz>


    • Комментарии (0):

      Информация

      Информация

        Посетители, находящиеся в группе Гости, не могут оставлять комментарии в данной новости.

        ↓ Меню




        ↓ Опрос

        Вы добавили сайт в закладки?
        Да
        Нет


        Top 10 за месяц (Музыка)

        U2 - Songs Of Experience (2017) Deluxe Edition [MP3|320 Kbps] <Classic Rock>

        (скачиваний: 10)
        Павел Пламенев - Неофициальный сборник песен (2014 - 2016) [MP3|192 кб / с] <русский рок, рок>

        (скачиваний: 9)
        George Otsuka Trio - Page 1 (1967) 2014, Nippon Columbia [FLAC|Lossless|tracks + .cue] <Post-Bop>

        (скачиваний: 9)
        Bob Seger - 23 альбома (1969 - 2014) [FLAC|WAVPack|Lossless]<Classic Rock> скачать через торрент бесплатно

        (скачиваний: 8)
        Fools Garden (Fools Garden) - 9 Альбомов, 12 Синглов (1993 - 2015) [MP3|320 кб / с]<Rock, Pop Rock>

        (скачиваний: 8)
        VA - Festival Alfa Future People (2016) [MP3|320 Kbps] <Trance, House, Club>

        (скачиваний: 6)
        Марина Девятова - В день рождения с любовью... (Юбилейный концерт) (2013) WEBRip [H.264 / 720p-LQ]скачать через торрент бесплатно

        (скачиваний: 6)
        FREE FLOW FLAVA - Complete Collection (2014-2016) [MP3|320 Kbps] <Восточный фольк, Hip-hop>

        (скачиваний: 6)
        Amadeus Veberzinke / Амадеус Веберзинке - J. S. Bach / И. С. Бах: Mass For Organ / Органная месса (1990) [FLAC 2.0 24 / 96|image+.cue (Vinyl-Rip)] <Classical, Organ> скачать через торрент бесплатно

        (скачиваний: 6)
        Cigarettes After Sex - Cigarettes After Sex (2017) [MP3|320 Kbps] <Indie Pop, Dream-Pop>

        (скачиваний: 6)