.
Авторизация | Регистрация
Хочешь лучшие торренты? Добавь свой email!
Добавить

Торрент скачать бесплатно

» » Владимир Высоцкий И Марина Влади - Марина Влади И Владимир Высоцкий (1996) [FLAC|Lossless|image + .cue]<Авторская песня> торрент скачать бесплатно




    Владимир Высоцкий И Марина Влади - Марина Влади И Владимир Высоцкий (1996) [FLAC|Lossless|image + .cue]<Авторская песня> торрент скачать бесплатно

    Опубликовал: Админ | Дата: 13-11-2017, 05:00 | Просмотров: 0

    Год: 1996
    Жанр: Авторская песня
    Издание: MEL CD 60 00498
    Источник (релизер): eloychik ®
    Продолжительность: 00: 55: 39
    Кодек: FLAC
    Битрейт: Lossless
    Тип рипа: image + .cue

    Треклист

    01. Так Дымно 4: 07
    02. О Двух Автомобилях 2: 44
    03. Марьюшка 2: 48
    04. Я Несла Свою Беду 2: 54
    05. Мужчины Ушли 3: 27
    06. Как По Волге-Матушке 3: 45
    07. Нет Меня 1: 51
    08. Она Была В Париже 1: 45
    09. Кони Привередливые 5: 36
    10. Скалолазка 2: 41
    11. Москва-Одесса 2: 59
    12. О Переселении Душ 2: 06
    13. Цыганочка (Из к/ф Иван Васильевич меняет профессию) 4: 25
    14. Ноль Семь 2: 30
    15. Я Не Люблю (Из спектакля Свой остров) 2: 09
    16. Ещё Не Вечер 2: 41
    17. Милицейский Протокол 3: 27
    18. Марафон 2: 02
    Код: выделить все

    Exact Audio Copy V1.3 from 2. September 2016
    Отчёт EAC об извлечении, выполненном 2. ноября 2017, 16:28
    Марина Влади и Владимир Высоцкий/Марина Влади Владимир Высоцкий
    Дисковод: ASUS DRW-24D5MT Adapter: 1 ID: 0
    Режим чтения : Достоверность
    Использование точного потока : Да
    Отключение кэша аудио : Да
    Использование указателей C2 : Нет
    Коррекция смещения при чтении : 6
    Способность читать области Lead-in и Lead-out : Нет
    Заполнение пропущенных сэмплов тишиной : Да
    Удаление блоков с тишиной в начале и конце : Нет
    При вычислениях CRC использовались нулевые сэмплы : Да
    Интерфейс : Встроенный Win32-интерфейс для Win NT/2000
    Выходной формат : Пользовательский кодировщик
    Выбранный битрейт : 128 kBit/s
    Качество : Высокий
    Добавление ID3-тега : Нет
    Утилита сжатия : C:Program Files (x86)Exact Audio CopyFlacflac.exe
    Дополнительные параметры : -V -8 -T Date=%year% -T Genre=%genre% %source%
    TOC извлечённого CD
    Трек | Старт | Длительность | Начальный сектор | Конечный сектор
    ---------------------------------------------------------------------
    1 | 0:00.00 | 4:10.32 | 0 | 18781
    2 | 4:10.32 | 2:47.35 | 18782 | 31341
    3 | 6:57.67 | 3:50.70 | 31342 | 48661
    4 | 10:48.62 | 2:57.30 | 48662 | 61966
    5 | 13:46.17 | 3:29.63 | 61967 | 77704
    6 | 17:16.05 | 3:45.32 | 77705 | 94611
    7 | 21:01.37 | 1:51.30 | 94612 | 102966
    8 | 22:52.67 | 1:47.63 | 102967 | 111054
    9 | 24:40.55 | 5:38.50 | 111055 | 136454
    10 | 30:19.30 | 2:43.27 | 136455 | 148706
    11 | 33:02.57 | 3:01.38 | 148707 | 162319
    12 | 36:04.20 | 2:08.72 | 162320 | 171991
    13 | 38:13.17 | 4:27.65 | 171992 | 192081
    14 | 42:41.07 | 2:32.50 | 192082 | 203531
    15 | 45:13.57 | 2:12.00 | 203532 | 213431
    16 | 47:25.57 | 2:43.68 | 213432 | 225724
    17 | 50:09.50 | 3:27.37 | 225725 | 241286
    18 | 53:37.12 | 2:02.13 | 241287 | 250449
    Характеристики диапазона извлечения и сообщения об ошибках
    Выбранный диапазон
    Имя файла E:РаздачиNNMClub-eloychik ®Марина Влади и Владимир Высоцкий [NNM-CLUB.NAME]Марина Влади и Владимир Высоцкий - Марина Влади Владимир Высоцкий.wav
    Пиковый уровень 68.1 %
    Скорость извлечения 3.0 X
    Качество диапазона 100.0 %
    CRC теста F057F867
    CRC копии F057F867
    Копирование... OK
    Ошибок не произошло
    AccurateRip: сводка
    Трек 1 точность не определена (достоверность 4) [CD4A924D], AccurateRip вернул [BCF087FE] (AR v2)
    Трек 2 точность не определена (достоверность 4) [5AC349A0], AccurateRip вернул [B98F63C2] (AR v2)
    Трек 3 точность не определена (достоверность 4) [4B9CA0D6], AccurateRip вернул [9297DC69] (AR v2)
    Трек 4 точность не определена (достоверность 4) [96588C4E], AccurateRip вернул [74740B94] (AR v2)
    Трек 5 точность не определена (достоверность 4) [58059B15], AccurateRip вернул [E4CD0D76] (AR v2)
    Трек 6 точность не определена (достоверность 4) [B6A4C9D3], AccurateRip вернул [853FDAAB] (AR v2)
    Трек 7 точность не определена (достоверность 4) [93D9A699], AccurateRip вернул [A36335B7] (AR v2)
    Трек 8 точность не определена (достоверность 4) [B15E6D4D], AccurateRip вернул [A3E8894F] (AR v2)
    Трек 9 точность не определена (достоверность 4) [082F57CC], AccurateRip вернул [BD07715E] (AR v2)
    Трек 10 точность не определена (достоверность 4) [2C34FF20], AccurateRip вернул [50CB142D] (AR v2)
    Трек 11 точность не определена (достоверность 4) [295C43E7], AccurateRip вернул [DB695FF7] (AR v2)
    Трек 12 точность не определена (достоверность 4) [6459EDC5], AccurateRip вернул [0ED1397C] (AR v2)
    Трек 13 точность не определена (достоверность 4) [B3D82B34], AccurateRip вернул [83DCD2BF] (AR v2)
    Трек 14 точность не определена (достоверность 4) [B1DC53BF], AccurateRip вернул [DDB268FA] (AR v2)
    Трек 15 точность не определена (достоверность 4) [15944DF5], AccurateRip вернул [52B190A0] (AR v2)
    Трек 16 точность не определена (достоверность 4) [8598CF27], AccurateRip вернул [4BBAB433] (AR v2)
    Трек 17 точность не определена (достоверность 4) [CE5A6575], AccurateRip вернул [6982DED1] (AR v2)
    Трек 18 точность не определена (достоверность 4) [67D87B78], AccurateRip вернул [821DF42F] (AR v2)
    Ни один трек не прошёл проверки на точность
    В вашей базе может быть иной вариант штамповки диска
    Конец отчёта
    ==== Контрольная сумма отчёта 4C44B931067B44A01831157CDE4501FDD5D89349EDCD60432F611BF7A4D54687 ====
    Код: выделить все

    REM GENRE Chanson
    REM DATE 1996
    REM DISCID F70D0B12
    REM COMMENT ExactAudioCopy v1.3
    PERFORMER Марина Влади и Владимир Высоцкий
    TITLE Марина Влади Владимир Высоцкий
    REM COMPOSER
    FILE Марина Влади и Владимир Высоцкий - Марина Влади Владимир Высоцкий.flac WAVE
    TRACK 01 AUDIO
    TITLE Так дымно
    PERFORMER Марина Влади и Владимир Высоцкий
    REM COMPOSER
    INDEX 01 00:00:00
    TRACK 02 AUDIO
    TITLE О двух автомобилях
    PERFORMER Марина Влади и Владимир Высоцкий
    REM COMPOSER
    INDEX 00 04:07:37
    INDEX 01 04:10:32
    TRACK 03 AUDIO
    TITLE Марьюшка
    PERFORMER Марина Влади и Владимир Высоцкий
    REM COMPOSER
    INDEX 00 06:55:25
    INDEX 01 06:57:67
    TRACK 04 AUDIO
    TITLE Я несла свою беду
    PERFORMER Марина Влади и Владимир Высоцкий
    REM COMPOSER
    INDEX 00 10:46:50
    INDEX 01 10:48:62
    TRACK 05 AUDIO
    TITLE Мужчины ушли
    PERFORMER Марина Влади и Владимир Высоцкий
    REM COMPOSER
    INDEX 00 13:43:37
    INDEX 01 13:46:17
    TRACK 06 AUDIO
    TITLE Как по Волге-матушке
    PERFORMER Марина Влади и Владимир Высоцкий
    REM COMPOSER
    INDEX 00 17:13:37
    INDEX 01 17:16:05
    TRACK 07 AUDIO
    TITLE Нет меня
    PERFORMER Марина Влади и Владимир Высоцкий
    REM COMPOSER
    INDEX 00 21:01:35
    INDEX 01 21:01:37
    TRACK 08 AUDIO
    TITLE Она была в Париже
    PERFORMER Марина Влади и Владимир Высоцкий
    REM COMPOSER
    INDEX 00 22:52:65
    INDEX 01 22:52:67
    TRACK 09 AUDIO
    TITLE Кони привередливые
    PERFORMER Марина Влади и Владимир Высоцкий
    REM COMPOSER
    INDEX 00 24:38:37
    INDEX 01 24:40:55
    TRACK 10 AUDIO
    TITLE Скалолазка
    PERFORMER Марина Влади и Владимир Высоцкий
    REM COMPOSER
    INDEX 00 30:17:00
    INDEX 01 30:19:30
    TRACK 11 AUDIO
    TITLE Москва-Одесса
    PERFORMER Марина Влади и Владимир Высоцкий
    REM COMPOSER
    INDEX 00 33:00:37
    INDEX 01 33:02:57
    TRACK 12 AUDIO
    TITLE О переселении душ
    PERFORMER Марина Влади и Владимир Высоцкий
    REM COMPOSER
    INDEX 00 36:02:00
    INDEX 01 36:04:20
    TRACK 13 AUDIO
    TITLE Цыганочка
    PERFORMER Марина Влади и Владимир Высоцкий
    REM COMPOSER
    INDEX 00 38:10:62
    INDEX 01 38:13:17
    TRACK 14 AUDIO
    TITLE Ноль семь
    PERFORMER Марина Влади и Владимир Высоцкий
    REM COMPOSER
    INDEX 00 42:39:00
    INDEX 01 42:41:07
    TRACK 15 AUDIO
    TITLE Я не люблю
    PERFORMER Марина Влади и Владимир Высоцкий
    REM COMPOSER
    INDEX 00 45:11:37
    INDEX 01 45:13:57
    TRACK 16 AUDIO
    TITLE Ещё не вечер
    PERFORMER Марина Влади и Владимир Высоцкий
    REM COMPOSER
    INDEX 00 47:23:25
    INDEX 01 47:25:57
    TRACK 17 AUDIO
    TITLE Милицейский протокол
    PERFORMER Марина Влади и Владимир Высоцкий
    REM COMPOSER
    INDEX 00 50:07:37
    INDEX 01 50:09:50
    TRACK 18 AUDIO
    TITLE Марафон
    PERFORMER Марина Влади и Владимир Высоцкий
    REM COMPOSER
    INDEX 00 53:37:10
    INDEX 01 53:37:12
    Код: выделить все

    -----------------------
    DON\'T MODIFY THIS FILE
    -----------------------
    PERFORMER: auCDtect Task Manager, ver. 1.6.0 RC1 build 1.6.0.1
    Copyright (c) 2008-2010 y-soft. All rights reserved
    http://y-soft.org
    ANALYZER: auCDtect: CD records authenticity detector, version 0.8.2
    Copyright (c) 2004 Oleg Berngardt. All rights reserved.
    Copyright (c) 2004 Alexander Djourik. All rights reserved.
    FILE: Марина Влади и Владимир Высоцкий - Марина Влади Владимир Высоцкий.flac
    Size: 321288380 Hash: 20D343D7211FDC2567BF256C29898B2E Accuracy: -m0
    Conclusion: CDDA 100%
    Signature: CFE6352C3BD6BEF9EB3A5439ED4F8C8CCEDC2535
    Время раздачи: Пн-Пт с 17: 00 до 20: 00 и по возможности


    Поглощение/вытеснение
    Только с согласия релизера

    Чех


    Владимир Высоцкий И Марина Влади - Марина Влади И Владимир Высоцкий (1996) [FLAC|Lossless|image + .cue]<Авторская песня>
    загрузка...
    Рейтинг →
     (голосов: 1, оценка 4/5, голосовать можно 1 раз )

    Другие торренты по теме:

  • Владимир Высоцкий - 100 лучших песен Высоцкого (5CD) (2007) [MP3|320 кб / с]<Авторская песня> скачать через торрент бесплатно
  • Владимир Высоцкий - Натянутый канат (1977) [FLAC 2.0 24 / 192|image + .cue (Vinyl-Rip)]<Chanson> скачать через торрент бесплатно
  • Владимир Высоцкий - 100 лучших песен (2007) 5CD [FLAC|Lossless]<Авторская песня> скачать через торрент бесплатно
  • Прощание. Владимир Высоцкий (2015) SATRip скачать через торрент бесплатно
  • Владимир Высоцкий - Vladimir Vissotski (1985) [FLAC 2.0 24 / 192 | image+cue (Vinyl-Rip)]<Авторская песня> скачать через торрент бесплатно
  • Владимир Высоцкий - "Von der Erde" und andere Lieder (1980) [FLAC 2.0 24 / 192 | lossless (Vinyl-Rip)]<Авторская песня> скачать через торрент бесплатно
  • Браво, Артист! - Владимир Высоцкий (2009) SATRip скачать через торрент бесплатно
  • Владимир Высоцкий - Vladimir Vissotsky (1977) [APE|image + .cue|2.0 24 / 192(Vinyl-Rip)]<Авторская песня> скачать через торрент бесплатно


    • Комментарии (0):

      Информация

      Информация

        Посетители, находящиеся в группе Гости, не могут оставлять комментарии в данной новости.

        ↓ Меню




        ↓ Опрос

        Вы добавили сайт в закладки?
        Да
        Нет


        Top 10 за месяц (Музыка)