.
Авторизация | Регистрация
Хочешь лучшие торренты? Добавь свой email!
Добавить

Торрент скачать бесплатно

» » LOrange & Jeremiah Jae - The Night Took Us In Like Family (2015) [FLAC|Lossless|tracks + .cue] <Hip-Hop, Underground Hip-Hop, Instrumental Hip-Hop> торрент скачать бесплатно




    LOrange & Jeremiah Jae - The Night Took Us In Like Family (2015) [FLAC|Lossless|tracks + .cue] <Hip-Hop, Underground Hip-Hop, Instrumental Hip-Hop> торрент скачать бесплатно

    Опубликовал: Админ | Дата: 13-11-2017, 05:00 | Просмотров: 0

    Производство: Mello Music Group – MMG00067CD
    Жанр: Hip-Hop, Underground Hip-Hop, Instrumental Hip-Hop
    Продолжительность: 00: 44: 09
    Кодек: FLAC
    Битрейт: Lossless
    Тип рипа: tracks + .cue

    Треклист

    01. Part One: Introducing A Conspicuous Man(1: 08)
    02. Do My Best To Carry On(3: 03)
    03. Ice Obsidian(1: 52)
    04. Underworld(3: 27)
    05. All I Need (feat. Gift Of Gab)(2: 50)
    06. Part Two: God Complex(1: 46)
    07. The Concrete Some Call Home(2: 45)
    08. Ignore The Man To Your Right (feat. Homeboy Sandman)(2: 59)
    09. Taken By The Night(3: 09)
    10. The Damning(1: 57)
    11. The Lineup(2: 10)
    12. Kicking Glass(2: 04)
    13. Kind Of Like Life(2: 36)
    14. Part Four: Revenge Escape(1: 33)
    15. I Was Invisible Nothing(3: 05)
    16. Death Valley(2: 26)
    17. Starry Eyed Balcony Walkers(3: 49)
    18. Part Five: Macabre(1: 30)
    Exact Audio Copy V1.0 beta 3 from 29. August 2011
    EAC extraction logfile from 24. April 2015, 16: 34
    L\'Orange Jeremiah Jae/The Night Took Us In Like Family
    Used drive : hp BD MLT UJ262 Adapter: 0 ID: 0
    Read mode : Secure
    Utilize accurate stream : Yes
    Defeat audio cache : Yes
    Make use of C2 pointers : No
    Read offset correction : 103
    Overread into Lead-In and Lead-Out : No
    Fill up missing offset samples with silence : Yes
    Delete leading and trailing silent blocks : No
    Null samples used in CRC calculations : Yes
    Used interface : Native Win32 interface for Win NT 2000
    Gap handling : Appended to previous track
    Used output format : User Defined Encoder
    Selected bitrate : 1024 kBit/s
    Quality : High
    Add ID3 tag : No
    Command line compressor : C: Program Files (x86)Exact Audio CopyFlacflac.exe
    Additional command line options : -8 -V -T ARTIST=%artist% -T TITLE=%title% -T ALBUM=%albumtitle% -T DATE=%year% -T TRACKNUMBER=%tracknr% -T GENRE=%genre% -T PERFORMER=%albuminterpret% -T COMPOSER=%composer% %haslyrics%--tag-from-file=LYRICS=%lyricsfile%%haslyrics% -T ALBUMARTIST=%albumartist% -T DISCNUMBER=%cdnumber% -T TOTALDISCS=%totalcds% -T TOTALTRACKS=%numtracks% -T COMMENT=%comment% %source% -o %dest%
    TOC of the extracted CD
    Track | Start | Length | Start sector | End sector
    ---------------------------------------------------------
    1 | 0: 00.00 | 1: 08.27 | 0 | 5126
    2 | 1: 08.27 | 3: 03.50 | 5127 | 18901
    3 | 4: 12.02 | 1: 52.53 | 18902 | 27354
    4 | 6: 04.55 | 3: 27.19 | 27355 | 42898
    5 | 9: 31.74 | 2: 50.54 | 42899 | 55702
    6 | 12: 22.53 | 1: 46.12 | 55703 | 63664
    7 | 14: 08.65 | 2: 45.14 | 63665 | 76053
    8 | 16: 54.04 | 2: 59.25 | 76054 | 89503
    9 | 19: 53.29 | 3: 09.55 | 89504 | 103733
    10 | 23: 03.09 | 1: 57.00 | 103734 | 112508
    11 | 25: 00.09 | 2: 10.17 | 112509 | 122275
    12 | 27: 10.26 | 2: 04.14 | 122276 | 131589
    13 | 29: 14.40 | 2: 36.10 | 131590 | 143299
    14 | 31: 50.50 | 1: 33.53 | 143300 | 150327
    15 | 33: 24.28 | 3: 05.36 | 150328 | 164238
    16 | 36: 29.64 | 2: 26.67 | 164239 | 175255
    17 | 38: 56.56 | 3: 49.29 | 175256 | 192459
    18 | 42: 46.10 | 1: 30.18 | 192460 | 199227
    Track 1
    Filename C: UsersJulianMusicL\'Orange Jeremiah Jae - The Night Took Us In Like Family (FLAC)L\'Orange Jeremiah Jae - The Night Took Us In Like Family - 01 - Part One- Introducing a Conspicuous Man.wav
    Pre-gap length 0: 00: 02.00
    Peak level 96.7 %
    Extraction speed 0.9 X
    Track quality 99.8 %
    Test CRC 44B1057B
    Copy CRC 44B1057B
    Track not present in AccurateRip database
    Copy OK
    Track 2
    Filename C: UsersJulianMusicL\'Orange Jeremiah Jae - The Night Took Us In Like Family (FLAC)L\'Orange Jeremiah Jae - The Night Took Us In Like Family - 02 - Do My Best To Carry on.wav
    Peak level 96.7 %
    Extraction speed 2.4 X
    Track quality 100.0 %
    Test CRC 0A650EC3
    Copy CRC 0A650EC3
    Track not present in AccurateRip database
    Copy OK
    Track 3
    Filename C: UsersJulianMusicL\'Orange Jeremiah Jae - The Night Took Us In Like Family (FLAC)L\'Orange Jeremiah Jae - The Night Took Us In Like Family - 03 - Ice Obsidian.wav
    Peak level 96.7 %
    Extraction speed 2.4 X
    Track quality 100.0 %
    Test CRC DF9BD9D0
    Copy CRC DF9BD9D0
    Track not present in AccurateRip database
    Copy OK
    Track 4
    Filename C: UsersJulianMusicL\'Orange Jeremiah Jae - The Night Took Us In Like Family (FLAC)L\'Orange Jeremiah Jae - The Night Took Us In Like Family - 04 - The Underworld.wav
    Peak level 96.7 %
    Extraction speed 2.8 X
    Track quality 100.0 %
    Test CRC 61846D9E
    Copy CRC 61846D9E
    Track not present in AccurateRip database
    Copy OK
    Track 5
    Filename C: UsersJulianMusicL\'Orange Jeremiah Jae - The Night Took Us In Like Family (FLAC)L\'Orange Jeremiah Jae - The Night Took Us In Like Family - 05 - All I Need.wav
    Peak level 96.7 %
    Extraction speed 2.9 X
    Track quality 100.0 %
    Test CRC ECB441B7
    Copy CRC ECB441B7
    Track not present in AccurateRip database
    Copy OK
    Track 6
    Filename C: UsersJulianMusicL\'Orange Jeremiah Jae - The Night Took Us In Like Family (FLAC)L\'Orange Jeremiah Jae - The Night Took Us In Like Family - 06 - Part Two- God Complex.wav
    Peak level 96.7 %
    Extraction speed 2.8 X
    Track quality 100.0 %
    Test CRC 2D8CBF5B
    Copy CRC 2D8CBF5B
    Track not present in AccurateRip database
    Copy OK
    Track 7
    Filename C: UsersJulianMusicL\'Orange Jeremiah Jae - The Night Took Us In Like Family (FLAC)L\'Orange Jeremiah Jae - The Night Took Us In Like Family - 07 - The Concrete Some Call Home.wav
    Peak level 96.7 %
    Extraction speed 3.1 X
    Track quality 100.0 %
    Test CRC F9C773E1
    Copy CRC F9C773E1
    Track not present in AccurateRip database
    Copy OK
    Track 8
    Filename C: UsersJulianMusicL\'Orange Jeremiah Jae - The Night Took Us In Like Family (FLAC)L\'Orange Jeremiah Jae - The Night Took Us In Like Family - 08 - Ignore the Man To Your Right.wav
    Peak level 96.7 %
    Extraction speed 3.4 X
    Track quality 100.0 %
    Test CRC 5B9570E4
    Copy CRC 5B9570E4
    Track not present in AccurateRip database
    Copy OK
    Track 9
    Filename C: UsersJulianMusicL\'Orange Jeremiah Jae - The Night Took Us In Like Family (FLAC)L\'Orange Jeremiah Jae - The Night Took Us In Like Family - 09 - Taken By The Night.wav
    Peak level 96.7 %
    Extraction speed 3.5 X
    Track quality 100.0 %
    Test CRC 728DF037
    Copy CRC 728DF037
    Track not present in AccurateRip database
    Copy OK
    Track 10
    Filename C: UsersJulianMusicL\'Orange Jeremiah Jae - The Night Took Us In Like Family (FLAC)L\'Orange Jeremiah Jae - The Night Took Us In Like Family - 10 - Part Three- The Damning.wav
    Peak level 96.7 %
    Extraction speed 3.3 X
    Track quality 100.0 %
    Test CRC A6B65C5B
    Copy CRC A6B65C5B
    Track not present in AccurateRip database
    Copy OK
    Track 11
    Filename C: UsersJulianMusicL\'Orange Jeremiah Jae - The Night Took Us In Like Family (FLAC)L\'Orange Jeremiah Jae - The Night Took Us In Like Family - 11 - The Lineup.wav
    Peak level 96.7 %
    Extraction speed 3.4 X
    Track quality 100.0 %
    Test CRC C8EE4774
    Copy CRC C8EE4774
    Track not present in AccurateRip database
    Copy OK
    Track 12
    Filename C: UsersJulianMusicL\'Orange Jeremiah Jae - The Night Took Us In Like Family (FLAC)L\'Orange Jeremiah Jae - The Night Took Us In Like Family - 12 - Kicking Glass.wav
    Peak level 96.7 %
    Extraction speed 2.2 X
    Track quality 99.9 %
    Test CRC F2441C95
    Copy CRC F2441C95
    Track not present in AccurateRip database
    Copy OK
    Track 13
    Filename C: UsersJulianMusicL\'Orange Jeremiah Jae - The Night Took Us In Like Family (FLAC)L\'Orange Jeremiah Jae - The Night Took Us In Like Family - 13 - Kind of Like Life.wav
    Peak level 96.7 %
    Extraction speed 3.8 X
    Track quality 100.0 %
    Test CRC 91E7F488
    Copy CRC 91E7F488
    Track not present in AccurateRip database
    Copy OK
    Track 14
    Filename C: UsersJulianMusicL\'Orange Jeremiah Jae - The Night Took Us In Like Family (FLAC)L\'Orange Jeremiah Jae - The Night Took Us In Like Family - 14 - Part Four- Revenge Escape.wav
    Peak level 96.7 %
    Extraction speed 3.4 X
    Track quality 100.0 %
    Test CRC D2B61AD7
    Copy CRC D2B61AD7
    Track not present in AccurateRip database
    Copy OK
    Track 15
    Filename C: UsersJulianMusicL\'Orange Jeremiah Jae - The Night Took Us In Like Family (FLAC)L\'Orange Jeremiah Jae - The Night Took Us In Like Family - 15 - I Was Invisible Nothing.wav
    Peak level 96.8 %
    Extraction speed 4.1 X
    Track quality 100.0 %
    Test CRC F7DC0C97
    Copy CRC F7DC0C97
    Track not present in AccurateRip database
    Copy OK
    Track 16
    Filename C: UsersJulianMusicL\'Orange Jeremiah Jae - The Night Took Us In Like Family (FLAC)L\'Orange Jeremiah Jae - The Night Took Us In Like Family - 16 - Death Valley.wav
    Peak level 96.7 %
    Extraction speed 4.0 X
    Track quality 100.0 %
    Test CRC 60FAD168
    Copy CRC 60FAD168
    Track not present in AccurateRip database
    Copy OK
    Track 17
    Filename C: UsersJulianMusicL\'Orange Jeremiah Jae - The Night Took Us In Like Family (FLAC)L\'Orange Jeremiah Jae - The Night Took Us In Like Family - 17 - Starry Eyed Balcony Walkers.wav
    Peak level 96.7 %
    Extraction speed 3.3 X
    Track quality 99.9 %
    Test CRC EFB764CA
    Copy CRC EFB764CA
    Track not present in AccurateRip database
    Copy OK
    Track 18
    Filename C: UsersJulianMusicL\'Orange Jeremiah Jae - The Night Took Us In Like Family (FLAC)L\'Orange Jeremiah Jae - The Night Took Us In Like Family - 18 - Part Five- Macabre.wav
    Peak level 96.7 %
    Extraction speed 3.7 X
    Track quality 100.0 %
    Test CRC C351689E
    Copy CRC C351689E
    Track not present in AccurateRip database
    Copy OK
    None of the tracks are present in the AccurateRip database
    No errors occurred
    End of status report
    ==== Log checksum 6E76C896EA4E898BC50764AB4B28AD34B68BFDF078853DDE9CC96BB8D5F680E2 ====
    -----------------------
    DON\'T MODIFY THIS FILE
    -----------------------
    PERFORMER: auCDtect Task Manager, ver. 1.6.0 RC1 build 1.6.0.1
    Copyright (c) 2008-2010 y-soft. All rights reserved
    http://y-soft.org
    ANALYZER: auCDtect: CD records authenticity detector, version 0.8.2
    Copyright (c) 2004 Oleg Berngardt. All rights reserved.
    Copyright (c) 2004 Alexander Djourik. All rights reserved.
    FILE: 18. Part Five - Macabre.flac
    Size: 9000553 Hash: DD8904E4591D15054B7293F38CD52D31 Accuracy: -m0
    Conclusion: CDDA 100%
    Signature: B531DCF17256324FFB291175C29CE6241967EB61
    FILE: 17. Starry Eyed Balcony Walkers.flac
    Size: 25374363 Hash: 2535D95C13280BF67AF1643452DE01E0 Accuracy: -m0
    Conclusion: CDDA 100%
    Signature: 191632C6EB60B7C0D86900F8AB1AC921B222B024
    FILE: 16. Death Valley.flac
    Size: 15051201 Hash: 6AF03D45601DA06ACC000AA4A4F14B60 Accuracy: -m0
    Conclusion: CDDA 100%
    Signature: 141F1F852C84516C6405E69EFA61BFEB279E6ABE
    FILE: 15. I Was Invisible Nothing.flac
    Size: 18221917 Hash: 1F4A135C3A6BB01973482B5C2B0F51D1 Accuracy: -m0
    Conclusion: CDDA 100%
    Signature: B2200199ADD8D2234223AC822A593C91CC009FDB
    FILE: 14. Part Four - Revenge Escape.flac
    Size: 8939565 Hash: 9771B5E0B9BD04D03F02E620333C080C Accuracy: -m0
    Conclusion: CDDA 100%
    Signature: 9A8D6704CCA337281ECEE131A4C5E7760FF37825
    FILE: 13. Kind of Like Life.flac
    Size: 15853799 Hash: 4AEF87563E32E4EDA4A365070E0101A4 Accuracy: -m0
    Conclusion: CDDA 100%
    Signature: 8C9E6558D59C0AA63B2F454DB955961643BD9C0C
    FILE: 12. Kicking Glass.flac
    Size: 13039604 Hash: B63B005D051FF8882AD19BA49B89F40A Accuracy: -m0
    Conclusion: CDDA 100%
    Signature: D15CCC6A451E9C2AC36DC580711BE07805072CA1
    FILE: 11. The Lineup.flac
    Size: 13501085 Hash: F5728513BD4B29BC8CC43D07EE6E23E2 Accuracy: -m0
    Conclusion: CDDA 100%
    Signature: CD45D605FE5BF9D85DB0AF8A07A0CEE0CD5CF0B6
    FILE: 10. Part Three - The Damning.flac
    Size: 11853920 Hash: 548DDAE89599780886DF11C9D1DF86DD Accuracy: -m0
    Conclusion: CDDA 100%
    Signature: DEDC9F5B88D0991EEA4D42D6B543243BF006C3E9
    FILE: 09. Taken By The Night.flac
    Size: 19622886 Hash: E232841FAEA021E41366A39BA514F38F Accuracy: -m0
    Conclusion: CDDA 100%
    Signature: 37B5D8CC3176544495ADC5655EC71F165F2230DF
    FILE: 08. Ignore The Man To Your Right (feat. Homeboy Sandman).flac
    Size: 19116180 Hash: 37A8768FB6FAD1870D80D8D18092F006 Accuracy: -m0
    Conclusion: CDDA 100%
    Signature: 5CCD99B580FA2E5C05F5BBB4D38F2CD9AFBC5458
    FILE: 07. The Concrete Some Call Home.flac
    Size: 16643925 Hash: 928CAB479127FDCC993341E061456DB7 Accuracy: -m0
    Conclusion: CDDA 100%
    Signature: 3087C3A2B2C8F86A31DFFE57A7AB67034A69BC17
    FILE: 06. Part Two - God Complex.flac
    Size: 10830492 Hash: 0A0830AF8B5380319E72C93D07970228 Accuracy: -m0
    Conclusion: CDDA 100%
    Signature: 278C94D05B5E72F2BBBBAB0A28E2AAF8DDB56132
    FILE: 05. All I Need (feat. Gift of Gab).flac
    Size: 18144527 Hash: 34A2A56017B905E16F91AD7ADF002088 Accuracy: -m0
    Conclusion: CDDA 100%
    Signature: 51E7007A3567A61631E7953CD880A9F8EA556DA5
    FILE: 04. The Underworld.flac
    Size: 20554281 Hash: E353BCF062E73CBA725AC0B66DD49277 Accuracy: -m0
    Conclusion: CDDA 100%
    Signature: FA974DBB8D5800C4BA4A23F2E63D7BA62C2D52DF
    FILE: 03. Ice Obsidian.flac
    Size: 11388034 Hash: 7A0AC7EA79AB4E89C22FB7F55929C07D Accuracy: -m0
    Conclusion: CDDA 100%
    Signature: D1CC6857F6785A39E1CE7492065320B17B319F88
    FILE: 02. Do My Best To Carry On.flac
    Size: 18283811 Hash: C1894C52D08807F0D2A6A493C78BF169 Accuracy: -m0
    Conclusion: CDDA 100%
    Signature: ACBFCDFD5914497442B98D31DF867B20D5C9E71A
    FILE: 01. Part One - Introducing a Conspicuous Man.flac
    Size: 6842273 Hash: 8D8F287AD05D82CF5CB0502B0D913942 Accuracy: -m0
    Conclusion: CDDA 100%
    Signature: 5A8368A9CDA570646AB8423E4A77C56F55FD66D2
    REM GENRE Rap
    REM DATE 2015
    REM DISCID E50A6012
    REM COMMENT ExactAudioCopy v1.0b3
    PERFORMER L\'Orange Jeremiah Jae
    TITLE The Night Took Us In Like Family
    FILE 01. Part One - Introducing a Conspicuous Man.wav WAVE
    TRACK 01 AUDIO
    TITLE Part One: Introducing a Conspicuous Man
    PERFORMER L\'Orange Jeremiah Jae
    INDEX 01 00: 00: 00
    FILE 02. Do My Best To Carry on.wav WAVE
    TRACK 02 AUDIO
    TITLE Do My Best To Carry on
    PERFORMER L\'Orange Jeremiah Jae
    INDEX 01 00: 00: 00
    FILE 03. Ice Obsidian.wav WAVE
    TRACK 03 AUDIO
    TITLE Ice Obsidian
    PERFORMER L\'Orange Jeremiah Jae
    INDEX 01 00: 00: 00
    FILE 04. The Underworld.wav WAVE
    TRACK 04 AUDIO
    TITLE The Underworld
    PERFORMER L\'Orange Jeremiah Jae
    INDEX 01 00: 00: 00
    FILE 05. All I Need (feat. Gift of Gab).wav WAVE
    TRACK 05 AUDIO
    TITLE All I Need (feat. Gift of Gab)
    PERFORMER L\'Orange Jeremiah Jae
    INDEX 01 00: 00: 00
    FILE 06. Part Two - God Complex.wav WAVE
    TRACK 06 AUDIO
    TITLE Part Two: God Complex
    PERFORMER L\'Orange Jeremiah Jae
    INDEX 01 00: 00: 00
    FILE 07. The Concrete Some Call Home.wav WAVE
    TRACK 07 AUDIO
    TITLE The Concrete Some Call Home
    PERFORMER L\'Orange Jeremiah Jae
    INDEX 01 00: 00: 00
    FILE 08. Ignore The Man To Your Right (feat. Homeboy Sandman).wav WAVE
    TRACK 08 AUDIO
    TITLE Ignore The Man To Your Right (feat. Homeboy Sandman)
    PERFORMER L\'Orange Jeremiah Jae
    INDEX 01 00: 00: 00
    FILE 09. Taken By The Night.wav WAVE
    TRACK 09 AUDIO
    TITLE Taken By The Night
    PERFORMER L\'Orange Jeremiah Jae
    INDEX 01 00: 00: 00
    FILE 10. Part Three- The Damning.wav WAVE
    TRACK 10 AUDIO
    TITLE Part Three: The Damning
    PERFORMER L\'Orange Jeremiah Jae
    INDEX 01 00: 00: 00
    FILE 11. The Lineup.wav WAVE
    TRACK 11 AUDIO
    TITLE The Lineup
    PERFORMER L\'Orange Jeremiah Jae
    INDEX 01 00: 00: 00
    FILE 12. Kicking Glass.wav WAVE
    TRACK 12 AUDIO
    TITLE Kicking Glass
    PERFORMER L\'Orange Jeremiah Jae
    INDEX 01 00: 00: 00
    FILE 13. Kind of Like Life.wav WAVE
    TRACK 13 AUDIO
    TITLE Kind of Like Life
    PERFORMER L\'Orange Jeremiah Jae
    INDEX 01 00: 00: 00
    FILE 14. Part Four - Revenge Escape.wav WAVE
    TRACK 14 AUDIO
    TITLE Part Four: Revenge Escape
    PERFORMER L\'Orange Jeremiah Jae
    INDEX 01 00: 00: 00
    FILE 15. I Was Invisible Nothing.wav WAVE
    TRACK 15 AUDIO
    TITLE I Was Invisible Nothing
    PERFORMER L\'Orange Jeremiah Jae
    INDEX 01 00: 00: 00
    FILE 16. Death Valley.wav WAVE
    TRACK 16 AUDIO
    TITLE Death Valley
    PERFORMER L\'Orange Jeremiah Jae
    INDEX 01 00: 00: 00
    FILE 17. Starry Eyed Balcony Walkers.wav WAVE
    TRACK 17 AUDIO
    TITLE Starry Eyed Balcony Walkers
    PERFORMER L\'Orange Jeremiah Jae
    INDEX 01 00: 00: 00
    FILE 18. Part Five - Macabre.wav WAVE
    TRACK 18 AUDIO
    TITLE Part Five: Macabre
    PERFORMER L\'Orange Jeremiah Jae
    INDEX 01 00: 00: 00
    YouTubeYouTube
    Оформлено с помощью: Быстрое оформление релиза в разделе Музыка.


    Поглощение/вытеснение
    Только с согласия релизера

    kudzin


    LOrange & Jeremiah Jae - The Night Took Us In Like Family (2015) [FLAC|Lossless|tracks + .cue] <Hip-Hop, Underground Hip-Hop, Instrumental Hip-Hop>
    загрузка...
    Рейтинг →
     (голосов: 1, оценка 5/5, голосовать можно 1 раз )

    Другие торренты по теме:

  • LOrange & Jeremiah Jae - The Night Took Us In Like Family (2015) [MP3|320 kbps] <Hip-Hop, Underground Hip-Hop, Instrumental Hip-Hop>


    • Комментарии (0):

      Информация

      Информация

        Посетители, находящиеся в группе Гости, не могут оставлять комментарии в данной новости.

        ↓ Меню




        ↓ Опрос

        Вы добавили сайт в закладки?
        Да
        Нет


        Top 10 за месяц (Музыка)