.
Авторизация | Регистрация
Хочешь лучшие торренты? Добавь свой email!
Добавить

Торрент скачать бесплатно

» » Art Taylor - Taylors Wailers (1957) 2013, Analogue Productions [FLAC|Lossless|tracks + .cue] <Bop, Hard Bop> торрент скачать бесплатно




    Art Taylor - Taylors Wailers (1957) 2013, Analogue Productions [FLAC|Lossless|tracks + .cue] <Bop, Hard Bop> торрент скачать бесплатно

    Опубликовал: Админ | Дата: 9-10-2017, 05:00 | Просмотров: 0

    Жанр: Bop, Hard Bop
    Издание: Analogue Productions - CPRJ 7117 SA
    Продолжительность: 00: 41: 08
    Кодек: FLAC (tracks+.cue)
    Битрейт: Lossless
    Источник (релизер): Kusanagi
    Страна-производитель диска: USA
    Наличие сканов в содержимом раздачи: да

    Треклист

    01. Batland 09: 53
    02. C.T.A. 04: 44
    03. Exhibit A 06: 16
    04. Cubano Chant 06: 36
    05. Off Minor 05: 39
    06. Well, You Needn\\'t 08: 02

    Exact Audio Copy V1.0 beta 3 from 29. August 2011
    EAC extraction logfile from 24. May 2014, 17: 05
    Art Taylor/Taylor\\'s Wailers
    Used drive : Optiarc DVD RW AD-7280S Adapter: 0 ID: 1
    Read mode : Secure
    Utilize accurate stream : Yes
    Defeat audio cache : Yes
    Make use of C2 pointers : No
    Read offset correction : 48
    Overread into Lead-In and Lead-Out : No
    Fill up missing offset samples with silence : Yes
    Delete leading and trailing silent blocks : No
    Null samples used in CRC calculations : Yes
    Used interface : Native Win32 interface for Win NT 2000
    Gap handling : Appended to previous track
    Used output format : User Defined Encoder
    Selected bitrate : 1024 kBit/s
    Quality : High
    Add ID3 tag : No
    Command line compressor : C: \Program Files\Exact Audio Copy\Flac\flac.exe
    Additional command line options : -8 -V -T ARTIST=%artist% -T TITLE=%title% -T ALBUM=%albumtitle% -T DATE=%year% -T TRACKNUMBER=%tracknr% -T GENRE=%genre% -T PERFORMER=%albuminterpret% -T COMPOSER=%composer% %haslyrics%--tag-from-file=LYRICS=%lyricsfile%%haslyrics% -T ALBUMARTIST=%albumartist% -T DISCNUMBER=%cdnumber% -T TOTALDISCS=%totalcds% -T TOTALTRACKS=%numtracks% -T COMMENT=%comment% %source% -o %dest%
    TOC of the extracted CD
    Track | Start | Length | Start sector | End sector
    ---------------------------------------------------------
    1 | 0: 00.00 | 9: 52.63 | 0 | 44462
    2 | 9: 52.63 | 4: 43.61 | 44463 | 65748
    3 | 14: 36.49 | 6: 15.30 | 65749 | 93903
    4 | 20: 52.04 | 6: 35.67 | 93904 | 123595
    5 | 27: 27.71 | 5: 38.28 | 123596 | 148973
    6 | 33: 06.24 | 8: 01.13 | 148974 | 185061
    Track 1
    Filename F: \What Rips\Art Taylor - Taylor\\'s Wailers\01. Batland.wav
    Pre-gap length 0: 00: 02.00
    Peak level 89.0 %
    Extraction speed 2.8 X
    Track quality 100.0 %
    Test CRC B68D3517
    Copy CRC B68D3517
    Track not present in AccurateRip database
    Copy OK
    Track 2
    Filename F: \What Rips\Art Taylor - Taylor\\'s Wailers\02. C.T.A..wav
    Pre-gap length 0: 00: 02.69
    Peak level 84.4 %
    Extraction speed 3.1 X
    Track quality 100.0 %
    Test CRC 74752B7F
    Copy CRC 74752B7F
    Track not present in AccurateRip database
    Copy OK
    Track 3
    Filename F: \What Rips\Art Taylor - Taylor\\'s Wailers\03. Exhibit A.wav
    Pre-gap length 0: 00: 02.42
    Peak level 93.8 %
    Extraction speed 3.5 X
    Track quality 100.0 %
    Test CRC 0E7BB1B7
    Copy CRC 0E7BB1B7
    Track not present in AccurateRip database
    Copy OK
    Track 4
    Filename F: \What Rips\Art Taylor - Taylor\\'s Wailers\04. Cubano Chant.wav
    Pre-gap length 0: 00: 02.09
    Peak level 94.8 %
    Extraction speed 3.9 X
    Track quality 100.0 %
    Test CRC BDC72889
    Copy CRC BDC72889
    Track not present in AccurateRip database
    Copy OK
    Track 5
    Filename F: \What Rips\Art Taylor - Taylor\\'s Wailers\05. Off Minor.wav
    Pre-gap length 0: 00: 02.68
    Peak level 90.3 %
    Extraction speed 4.1 X
    Track quality 100.0 %
    Test CRC 7C346A61
    Copy CRC 7C346A61
    Track not present in AccurateRip database
    Copy OK
    Track 6
    Filename F: \What Rips\Art Taylor - Taylor\\'s Wailers\06. Well, You Needn\\'t.wav
    Pre-gap length 0: 00: 02.49
    Peak level 81.9 %
    Extraction speed 4.5 X
    Track quality 100.0 %
    Test CRC 98846496
    Copy CRC 98846496
    Track not present in AccurateRip database
    Copy OK
    None of the tracks are present in the AccurateRip database
    No errors occurred
    End of status report
    ==== Log checksum D865C167CC14E6586A89E60F122BD682172298E3902C7D8F3D858191FA3F88A1 ====

    REM GENRE Jazz
    REM DATE 1957
    REM DISCID 6509A306
    REM COMMENT ExactAudioCopy v1.0b3
    PERFORMER Art Taylor
    TITLE Taylor\\'s Wailers
    FILE 01 - Batland.wav WAVE
    TRACK 01 AUDIO
    TITLE Batland
    PERFORMER Art Taylor
    INDEX 01 00: 00: 00
    TRACK 02 AUDIO
    TITLE C.T.A.
    PERFORMER Art Taylor
    INDEX 00 09: 50: 11
    FILE 02 - C.T.A..wav WAVE
    INDEX 01 00: 00: 00
    TRACK 03 AUDIO
    TITLE Exhibit A
    PERFORMER Art Taylor
    INDEX 00 04: 41: 29
    FILE 03 - Exhibit A.wav WAVE
    INDEX 01 00: 00: 00
    TRACK 04 AUDIO
    TITLE Cubano Chant
    PERFORMER Art Taylor
    INDEX 00 06: 13: 23
    FILE 04 - Cubano Chant.wav WAVE
    INDEX 01 00: 00: 00
    TRACK 05 AUDIO
    TITLE Off Minor
    PERFORMER Art Taylor
    INDEX 00 06: 33: 16
    FILE 05 - Off Minor.wav WAVE
    INDEX 01 00: 00: 00
    TRACK 06 AUDIO
    TITLE Well, You Needn\\'t
    PERFORMER Art Taylor
    INDEX 00 05: 35: 66
    FILE 06 - Well, You Needn\\'t.wav WAVE
    INDEX 01 00: 00: 00

    -----------------------
    DON\\'T MODIFY THIS FILE
    -----------------------
    PERFORMER: auCDtect Task Manager, ver. 1.6.0 RC1 build 1.6.0.1
    Copyright (c) 2008-2010 y-soft. All rights reserved
    http://y-soft.org
    ANALYZER: auCDtect: CD records authenticity detector, version 0.8.2
    Copyright (c) 2004 Oleg Berngardt. All rights reserved.
    Copyright (c) 2004 Alexander Djourik. All rights reserved.
    FILE: 06 - Well, You Needn\\'t.flac
    Size: 45130661 Hash: 86EC49D24C49E9B482070E70CD18DC6F Accuracy: -m0
    Conclusion: CDDA 100%
    Signature: 689857561AB8C47D27C8E4651703F4AFEB23A963
    FILE: 05 - Off Minor.flac
    Size: 32096983 Hash: B8C0F2CBD4AD56AFADFA49EDF036B780 Accuracy: -m0
    Conclusion: CDDA 100%
    Signature: 5FC22F63009CC8DD871FF68699E4A369FA1C749C
    FILE: 04 - Cubano Chant.flac
    Size: 36901044 Hash: FA247B4EBF0CC57B48234252AC756FB3 Accuracy: -m0
    Conclusion: CDDA 100%
    Signature: F5744BBB442B4A6B54C1EFFBFFE06D2E8B90831B
    FILE: 03 - Exhibit A.flac
    Size: 38664478 Hash: 25B632430E20A4F13ADBD9460CABAD55 Accuracy: -m0
    Conclusion: MPEG 91%
    Signature: 2A9BA20593D850225B5940155EDF30643487FE22
    FILE: 02 - C.T.A..flac
    Size: 27256915 Hash: 14439711963090DD9F6877E162E9A2C1 Accuracy: -m0
    Conclusion: CDDA 100%
    Signature: DC797419A2D074471DD8D4455346F967EDB72FAB
    FILE: 01 - Batland.flac
    Size: 54380388 Hash: 5CF82476B406B3096E269B4A8076302C Accuracy: -m0
    Conclusion: CDDA 100%
    Signature: 5F1822F527190D2858E386E50AEE80B693EA65E4




    Art Taylor - Taylors Wailers (1957) 2013, Analogue Productions [FLAC|Lossless|tracks + .cue] <Bop, Hard Bop>
    загрузка...
    Рейтинг →
     (голосов: 1, оценка 3/5, голосовать можно 1 раз )

    Другие торренты по теме:

  • The Billy Taylor Trio - A Touch Of Taylor (1955) / 2013, Universal / [FLAC|tracks+.cue]<Bop, Piano Jazz> скачать через торрент бесплатно
  • Sam "The Man" Taylor & His Orchestra - Sam "The Man" Taylor In Japan (1961) LP, Stereo [FLAC|Lossless|tracks] <Jazz, Sax, Instrumental>
  • Sam "The Man" Taylor - Sam Taylor Pops Daizen Shu (2003) [FLAC|Lossless|image + .cue] <Instrumental, saxophone>
  • Joanne Shaw Taylor - The Dirty Truth (2014) [MP3|320 кб / с]<Blues Rock>
  • Martin Taylor - Nitelife (2001) [FLAC|Lossless]<Fusion, Smooth Jazz>
  • Taylor Swift - 1989 [Deluxe] (2014) [FLAC|Lossless]<Pop> скачать через торрент бесплатно
  • Joanne Shaw Taylor - Almost Always Never (2012) [MP3|320 кб / с]<Blues Rock> скачать через торрент бесплатно
  • Joanne Shaw Taylor - The Dirty Truth (2014) [FLAC|Lossless]<Blues-Rock>


    • Комментарии (0):

      Информация

      Информация

        Посетители, находящиеся в группе Гости, не могут оставлять комментарии в данной новости.

        ↓ Меню




        ↓ Опрос

        Вы добавили сайт в закладки?
        Да
        Нет


        Top 10 за месяц (Музыка)