.
Авторизация | Регистрация
Хочешь лучшие торренты? Добавь свой email!
Добавить

Торрент скачать бесплатно

» » Barkin Bill - Gotcha! (1994) [FLAC|Lossless|tracks + .cue] <Modern Electric Blues, Chicago Blues> торрент скачать бесплатно




    Barkin Bill - Gotcha! (1994) [FLAC|Lossless|tracks + .cue] <Modern Electric Blues, Chicago Blues> торрент скачать бесплатно

    Опубликовал: Админ | Дата: 9-10-2017, 05:00 | Просмотров: 0

    Жанр: Modern Electric Blues, Chicago Blues
    Издание: Delmark Records
    Благодарность: Edward
    Продолжительность: 01: 00: 21
    Кодек: FLAC
    Битрейт: Lossless
    Тип рипа: tracks + .cue

    Треклист

    01. Sufferin\\' Mind(03: 57)
    02. As Long As I Have You(04: 42)
    03. Down the Line(03: 19)
    04. Someday After Awhile(06: 38)
    05. Too Fine For Cryin\\'(03: 46)
    06. You\\'re Too Much(04: 24)
    07. Blue Guitar(04: 37)
    08. Get Your Kicks(04: 03)
    09. I Love To Love You(03: 16)
    10. One Kiss(03: 08)
    11. I Got What I Wanted(05: 17)
    12. Hot Tomato(03: 18)
    13. No Rollin\\' Blues(06: 12)
    14. What Makes These Things Happen To Me(03: 37)

    Exact Audio Copy V1.3 from 2. September 2016
    EAC extraction logfile from 17. September 2017, 18: 53
    Barkin\\' Bill/Gotcha!
    Used drive : MATSHITADVD-RAM UJ8C0 Adapter: 1 ID: 0
    Read mode : Secure
    Utilize accurate stream : Yes
    Defeat audio cache : Yes
    Make use of C2 pointers : No
    Read offset correction : 103
    Overread into Lead-In and Lead-Out : No
    Fill up missing offset samples with silence : Yes
    Delete leading and trailing silent blocks : No
    Null samples used in CRC calculations : Yes
    Used interface : Native Win32 interface for Win NT 2000
    Gap handling : Appended to previous track
    Used output format : User Defined Encoder
    Selected bitrate : 1024 kBit/s
    Quality : High
    Add ID3 tag : No
    Command line compressor : C: \Program Files (x86)\Exact Audio Copy\Flac\flac.exe
    Additional command line options : -8 -e -p -V -T ARTIST=%artist% -T TITLE=%title% -T ALBUM=%albumtitle% -T DATE=%year% -T TRACKNUMBER=%tracknr% -T GENRE=%genre% -T PERFORMER=%albuminterpret% -T COMPOSER=%composer% %haslyrics%--tag-from-file=LYRICS=%lyricsfile%%haslyrics% -T ALBUMARTIST=%albumartist% -T DISCNUMBER=%cdnumber% -T TOTALDISCS=%totalcds% -T TOTALTRACKS=%numtracks% -T COMMENT=%comment% %source% -o %dest%
    TOC of the extracted CD
    Track | Start | Length | Start sector | End sector
    ---------------------------------------------------------
    1 | 0: 00.00 | 3: 57.32 | 0 | 17806
    2 | 3: 57.32 | 4: 42.53 | 17807 | 39009
    3 | 8: 40.10 | 3: 19.07 | 39010 | 53941
    4 | 11: 59.17 | 6: 38.58 | 53942 | 83849
    5 | 18: 38.00 | 3: 46.37 | 83850 | 100836
    6 | 22: 24.37 | 4: 24.73 | 100837 | 120709
    7 | 26: 49.35 | 4: 37.70 | 120710 | 141554
    8 | 31: 27.30 | 4: 03.20 | 141555 | 159799
    9 | 35: 30.50 | 3: 16.60 | 159800 | 174559
    10 | 38: 47.35 | 3: 08.22 | 174560 | 188681
    11 | 41: 55.57 | 5: 17.03 | 188682 | 212459
    12 | 47: 12.60 | 3: 18.02 | 212460 | 227311
    13 | 50: 30.62 | 6: 12.38 | 227312 | 255249
    14 | 56: 43.25 | 3: 37.67 | 255250 | 271591
    Track 1
    Filename C: \Users\Edward\Music\Barkin\\' Bill - Gotcha!\01 - Sufferin\\' Mind.wav
    Pre-gap length 0: 00: 02.00
    Peak level 98.8 %
    Extraction speed 2.5 X
    Track quality 100.0 %
    Test CRC 6CDC34C4
    Copy CRC 6CDC34C4
    Accurately ripped (confidence 3) 9DF92482 (AR v1)
    Copy OK
    Track 2
    Filename C: \Users\Edward\Music\Barkin\\' Bill - Gotcha!\02 - As Long As I Have You.wav
    Pre-gap length 0: 00: 05.02
    Peak level 95.0 %
    Extraction speed 2.7 X
    Track quality 100.0 %
    Test CRC E6B1E6BD
    Copy CRC E6B1E6BD
    Accurately ripped (confidence 3) 54514259 (AR v1)
    Copy OK
    Track 3
    Filename C: \Users\Edward\Music\Barkin\\' Bill - Gotcha!\03 - Down the Line.wav
    Pre-gap length 0: 00: 03.57
    Peak level 89.3 %
    Extraction speed 2.9 X
    Track quality 100.0 %
    Test CRC 015F4B2F
    Copy CRC 015F4B2F
    Accurately ripped (confidence 3) 988F8864 (AR v1)
    Copy OK
    Track 4
    Filename C: \Users\Edward\Music\Barkin\\' Bill - Gotcha!\04 - Someday After Awhile.wav
    Pre-gap length 0: 00: 03.62
    Peak level 98.8 %
    Extraction speed 3.5 X
    Track quality 100.0 %
    Test CRC 0D2670CB
    Copy CRC 0D2670CB
    Accurately ripped (confidence 3) E6D6B922 (AR v1)
    Copy OK
    Track 5
    Filename C: \Users\Edward\Music\Barkin\\' Bill - Gotcha!\05 - Too Fine For Cryin\\'.wav
    Pre-gap length 0: 00: 03.60
    Peak level 98.8 %
    Extraction speed 3.5 X
    Track quality 100.0 %
    Test CRC 011BF101
    Copy CRC 011BF101
    Accurately ripped (confidence 3) 558D179A (AR v1)
    Copy OK
    Track 6
    Filename C: \Users\Edward\Music\Barkin\\' Bill - Gotcha!\06 - You\\'re Too Much.wav
    Pre-gap length 0: 00: 03.60
    Peak level 98.8 %
    Extraction speed 3.7 X
    Track quality 100.0 %
    Test CRC BD8E559F
    Copy CRC BD8E559F
    Accurately ripped (confidence 3) 87973363 (AR v1)
    Copy OK
    Track 7
    Filename C: \Users\Edward\Music\Barkin\\' Bill - Gotcha!\07 - Blue Guitar.wav
    Pre-gap length 0: 00: 03.60
    Peak level 85.5 %
    Extraction speed 4.0 X
    Track quality 100.0 %
    Test CRC A8A93AFC
    Copy CRC A8A93AFC
    Accurately ripped (confidence 3) A0C0CBDA (AR v1)
    Copy OK
    Track 8
    Filename C: \Users\Edward\Music\Barkin\\' Bill - Gotcha!\08 - Get Your Kicks.wav
    Pre-gap length 0: 00: 03.60
    Peak level 98.8 %
    Extraction speed 4.0 X
    Track quality 100.0 %
    Test CRC 67ACE9D4
    Copy CRC 67ACE9D4
    Accurately ripped (confidence 3) FB2239A5 (AR v1)
    Copy OK
    Track 9
    Filename C: \Users\Edward\Music\Barkin\\' Bill - Gotcha!\09 - I Love To Love You.wav
    Pre-gap length 0: 00: 03.60
    Peak level 93.8 %
    Extraction speed 0.6 X
    Track quality 99.5 %
    Test CRC 77E61367
    Copy CRC 77E61367
    Accurately ripped (confidence 3) ADE2D06E (AR v1)
    Copy OK
    Track 10
    Filename C: \Users\Edward\Music\Barkin\\' Bill - Gotcha!\10 - One Kiss.wav
    Pre-gap length 0: 00: 03.57
    Peak level 98.8 %
    Extraction speed 4.2 X
    Track quality 100.0 %
    Test CRC A31F3DC0
    Copy CRC A31F3DC0
    Accurately ripped (confidence 3) BB713600 (AR v1)
    Copy OK
    Track 11
    Filename C: \Users\Edward\Music\Barkin\\' Bill - Gotcha!\11 - I Got What I Wanted.wav
    Pre-gap length 0: 00: 05.06
    Peak level 99.1 %
    Extraction speed 3.6 X
    Track quality 99.9 %
    Test CRC A1FAA8A4
    Copy CRC A1FAA8A4
    Accurately ripped (confidence 3) A053195A (AR v1)
    Copy OK
    Track 12
    Filename C: \Users\Edward\Music\Barkin\\' Bill - Gotcha!\12 - Hot Tomato.wav
    Pre-gap length 0: 00: 03.57
    Peak level 84.8 %
    Extraction speed 4.4 X
    Track quality 100.0 %
    Test CRC 0CE0E279
    Copy CRC 0CE0E279
    Accurately ripped (confidence 3) F8A36A93 (AR v1)
    Copy OK
    Track 13
    Filename C: \Users\Edward\Music\Barkin\\' Bill - Gotcha!\13 - No Rollin\\' Blues.wav
    Pre-gap length 0: 00: 03.62
    Peak level 98.8 %
    Extraction speed 4.0 X
    Track quality 99.9 %
    Test CRC D5ED96FA
    Copy CRC D5ED96FA
    Accurately ripped (confidence 3) BFA6EB35 (AR v1)
    Copy OK
    Track 14
    Filename C: \Users\Edward\Music\Barkin\\' Bill - Gotcha!\14 - What Makes These Things Happen To Me.wav
    Pre-gap length 0: 00: 03.57
    Peak level 98.8 %
    Extraction speed 4.8 X
    Track quality 100.0 %
    Test CRC DF4A5146
    Copy CRC DF4A5146
    Accurately ripped (confidence 3) E68C42A2 (AR v1)
    Copy OK
    All tracks accurately ripped
    No errors occurred
    End of status report
    ---- CUETools DB Plugin V2.1.6
    CTDB TOCID: sfGR._85Y4.of8xEqjJP48_ONbk- found
    Submit result: sfGR._85Y4.of8xEqjJP48_ONbk- has been confirmed
    Track | CTDB Status
    1 | (5/5) Accurately ripped
    2 | (5/5) Accurately ripped
    3 | (5/5) Accurately ripped
    4 | (5/5) Accurately ripped
    5 | (5/5) Accurately ripped
    6 | (5/5) Accurately ripped
    7 | (5/5) Accurately ripped
    8 | (5/5) Accurately ripped
    9 | (5/5) Accurately ripped
    10 | (5/5) Accurately ripped
    11 | (5/5) Accurately ripped
    12 | (5/5) Accurately ripped
    13 | (5/5) Accurately ripped
    14 | (5/5) Accurately ripped
    ==== Log checksum E05BCA4B64431C9BE430408C6792149EE1DB51A0D74C2127D5C9812EAA02A4CD ====

    REM GENRE Blues
    REM DATE 1994
    REM DISCID A40E250E
    REM COMMENT ExactAudioCopy v1.3
    FILE 01 - Sufferin\\' Mind.wav WAVE
    TRACK 01 AUDIO
    INDEX 01 00: 00: 00
    TRACK 02 AUDIO
    INDEX 00 03: 52: 30
    FILE 02 - As Long As I Have You.wav WAVE
    INDEX 01 00: 00: 00
    TRACK 03 AUDIO
    INDEX 00 04: 39: 10
    FILE 03 - Down the Line.wav WAVE
    INDEX 01 00: 00: 00
    TRACK 04 AUDIO
    INDEX 00 03: 15: 35
    FILE 04 - Someday After Awhile.wav WAVE
    INDEX 01 00: 00: 00
    TRACK 05 AUDIO
    INDEX 00 06: 35: 13
    FILE 05 - Too Fine For Cryin\\'.wav WAVE
    INDEX 01 00: 00: 00
    TRACK 06 AUDIO
    INDEX 00 03: 42: 67
    FILE 06 - You\\'re Too Much.wav WAVE
    INDEX 01 00: 00: 00
    TRACK 07 AUDIO
    INDEX 00 04: 21: 28
    FILE 07 - Blue Guitar.wav WAVE
    INDEX 01 00: 00: 00
    TRACK 08 AUDIO
    INDEX 00 04: 34: 25
    FILE 08 - Get Your Kicks.wav WAVE
    INDEX 01 00: 00: 00
    TRACK 09 AUDIO
    INDEX 00 03: 59: 50
    FILE 09 - I Love To Love You.wav WAVE
    INDEX 01 00: 00: 00
    TRACK 10 AUDIO
    INDEX 00 03: 13: 17
    FILE 10 - One Kiss.wav WAVE
    INDEX 01 00: 00: 00
    TRACK 11 AUDIO
    INDEX 00 03: 03: 17
    FILE 11 - I Got What I Wanted.wav WAVE
    INDEX 01 00: 00: 00
    TRACK 12 AUDIO
    INDEX 00 05: 13: 35
    FILE 12 - Hot Tomato.wav WAVE
    INDEX 01 00: 00: 00
    TRACK 13 AUDIO
    INDEX 00 03: 14: 30
    FILE 13 - No Rollin\\' Blues.wav WAVE
    INDEX 01 00: 00: 00
    TRACK 14 AUDIO
    INDEX 00 06: 08: 70
    FILE 14 - What Makes These Things Happen To Me.wav WAVE
    INDEX 01 00: 00: 00

    -----------------------
    DON\\'T MODIFY THIS FILE
    -----------------------
    PERFORMER: auCDtect Task Manager, ver. 1.6.0 RC1 build 1.6.0.1
    Copyright (c) 2008-2010 y-soft. All rights reserved
    http://y-soft.org
    ANALYZER: auCDtect: CD records authenticity detector, version 0.8.2
    Copyright (c) 2004 Oleg Berngardt. All rights reserved.
    Copyright (c) 2004 Alexander Djourik. All rights reserved.
    FILE: 14 - What Makes These Things Happen To Me.flac
    Size: 20508702 Hash: 4C39D3A36CA178A5F8550289844AE84A Accuracy: -m0
    Conclusion: CDDA 99%
    Signature: 1297E8847EE16BA3EA3604CA0F25EC6914D79F0F
    FILE: 13 - No Rollin\\' Blues.flac
    Size: 32713873 Hash: C59986506FB6282050975DFF076BAE49 Accuracy: -m0
    Conclusion: CDDA 100%
    Signature: 1E331AB8F83E69B418DFD6822DDD5119018BFE59
    FILE: 12 - Hot Tomato.flac
    Size: 19176085 Hash: F914A5DF4D6B83053DCFECA5BECE527C Accuracy: -m0
    Conclusion: CDDA 100%
    Signature: 246EBFF7F6FB0EB96025FC6A0CEFE7161344B51A
    FILE: 11 - I Got What I Wanted.flac
    Size: 27713342 Hash: 0577BF78A74D9C15960DAEB18A487625 Accuracy: -m0
    Conclusion: CDDA 100%
    Signature: C9CDD1DD07AEB2774E179984FACAAD2724C0C506
    FILE: 10 - One Kiss.flac
    Size: 18311613 Hash: D51220B7A54579ECE74E52404195AEDE Accuracy: -m0
    Conclusion: CDDA 100%
    Signature: EB903906F1DC149FBC5E0A683B87F81563AA59D4
    FILE: 09 - I Love To Love You.flac
    Size: 18982446 Hash: EFC7EFF7CBE594C64702487D7D06B0D9 Accuracy: -m0
    Conclusion: CDDA 100%
    Signature: 0CF797F83A2F137213719DECD917D2B52AF728AF
    FILE: 08 - Get Your Kicks.flac
    Size: 24200201 Hash: A7F1A2E17CBE65919A6F5144A7C881A0 Accuracy: -m0
    Conclusion: CDDA 100%
    Signature: 40C4949FCBB90C0947715376E709FF694D1297F9
    FILE: 07 - Blue Guitar.flac
    Size: 26063156 Hash: 2E59F3D7C650136F5A415160E28AA3DE Accuracy: -m0
    Conclusion: CDDA 100%
    Signature: 4AE5E2083D2B739223012558936F21486D2EF652
    FILE: 06 - You\\'re Too Much.flac
    Size: 23539556 Hash: 5E746496F6C17E455AB0B1F1CC187C83 Accuracy: -m0
    Conclusion: CDDA 100%
    Signature: A96336E268C77E86327D73D635BC4C1530999FDF
    FILE: 05 - Too Fine For Cryin\\'.flac
    Size: 21639596 Hash: C36C117B85F645AD2445BDD4B7BDFC26 Accuracy: -m0
    Conclusion: CDDA 100%
    Signature: DBE175D6D03363D86B44ADCBE76054FA132C3687
    FILE: 04 - Someday After Awhile.flac
    Size: 36469457 Hash: 07531D5D7314B1EAD8BB872049BB68A5 Accuracy: -m0
    Conclusion: CDDA 99%
    Signature: 00C36A1A3BDDA19844E0E7C41A32260CA8DF5B43
    FILE: 03 - Down the Line.flac
    Size: 19931889 Hash: FE8BE96EB6993F7B47D5EE6608A7E339 Accuracy: -m0
    Conclusion: CDDA 100%
    Signature: 78540CD5D9B2D293821125513FA42B1CFBE064E8
    FILE: 02 - As Long As I Have You.flac
    Size: 27918076 Hash: FC3D996041D2BE5BF49962D4E024757C Accuracy: -m0
    Conclusion: CDDA 100%
    Signature: 5FAE0DC63766894BC0786C40D6F9E34A14A74C3C
    FILE: 01 - Sufferin\\' Mind.flac
    Size: 22961888 Hash: 7144518BA352690A9BC71FF6131158F5 Accuracy: -m0
    Conclusion: CDDA 100%
    Signature: EACB186D5CF706C2BD694F87CDEA6A3425E5CF41
    YouTubeYouTube Время раздачи: C 18: 00 до 20: 00 ВС. 10.00 до 20.00 (до появления первых 3-5 скачавших)


    Поглощение/вытеснение
    Только с согласия релизера

    Beijing65

    Barkin Bill - Gotcha! (1994) [FLAC|Lossless|tracks + .cue] <Modern Electric Blues, Chicago Blues>
    загрузка...
    Рейтинг →
     (голосов: 1, оценка 5/5, голосовать можно 1 раз )

    Другие торренты по теме:



      Комментарии (0):

      Информация

      Информация

        Посетители, находящиеся в группе Гости, не могут оставлять комментарии в данной новости.

        ↓ Меню




        ↓ Опрос

        Вы добавили сайт в закладки?
        Да
        Нет


        Top 10 за месяц (Музыка)