.
Авторизация | Регистрация
Хочешь лучшие торренты? Добавь свой email!
Добавить

Торрент скачать бесплатно

» » Candlemass - 11 Albums, 6 Compilations, 3 Lives, 1 Single, 2 EP (1986 - 2016) 41 CD [FLAC|Lossless|image + .cue] <Doom Metal> торрент скачать бесплатно




    Candlemass - 11 Albums, 6 Compilations, 3 Lives, 1 Single, 2 EP (1986 - 2016) 41 CD [FLAC|Lossless|image + .cue] <Doom Metal> торрент скачать бесплатно

    Опубликовал: Админ | Дата: 9-10-2017, 05:00 | Просмотров: 0

    Жанр: Doom Metal
    Издание: Black Dragon Records - LD 19882-2
    Продолжительноcть: 00: 43: 05
    Источник (релизер): hexonut
    Кодек: FLAC
    Битрейт: Lossles
    Тип рипа: image + .cue
    Наличие сканов: Да, полные

    Треклиcт:
    01. Solitude (5: 38)
    02. Demon\\'s Gate (9: 13)
    03. Crystal Ball (5: 22)
    04. Black Stone Wielder (7: 37)
    05. Under The Oak (6: 55)
    06. A Sorcerer\\'s Pledge (8: 20)
    Mats Björkman - guitars
    Leif Edling - bass
    Matz Ekstroem - drums
    Guests:
    Johan Lanquist - vocals
    Klas Bergwall - lead guitars
    Cille Svenson - additional vocals on A Sorcerer\\'s Pledge
    Код: выделить все
    Exact Audio Copy V1.0 beta 3 from 29. August 2011
    EAC extraction logfile from 27. November 2011, 11:37
    Candlemass/Epicus Doomicus Metallicus
    Used drive : PLEXTOR DVDR PX-760A Adapter: 0 ID: 1
    Read mode : Secure
    Utilize accurate stream : Yes
    Defeat audio cache : Yes
    Make use of C2 pointers : No
    Read offset correction : 30
    Overread into Lead-In and Lead-Out : No
    Fill up missing offset samples with silence : Yes
    Delete leading and trailing silent blocks : No
    Null samples used in CRC calculations : Yes
    Used interface : Installed external ASPI interface
    Used output format : Internal WAV Routines
    Sample format : 44.100 Hz; 16 Bit; Stereo
    TOC of the extracted CD
    Track | Start | Length | Start sector | End sector
    ---------------------------------------------------------
    1 | 0:00.00 | 5:37.50 | 0 | 25324
    2 | 5:37.50 | 9:12.45 | 25325 | 66769
    3 | 14:50.20 | 5:21.62 | 66770 | 90906
    4 | 20:12.07 | 7:36.60 | 90907 | 125166
    5 | 27:48.67 | 6:55.23 | 125167 | 156314
    6 | 34:44.15 | 8:20.30 | 156315 | 193844
    Range status and errors
    Selected range
    Filename Z:\data\mp3\Seeding Archive\Candlemass\1986-Epicus Doomicus Metallicus\Epicus Doomicus Metallicus.wav
    Peak level 88.7 %
    Extraction speed 7.3 X
    Range quality 99.9 %
    Test CRC BAACD4BC
    Copy CRC BAACD4BC
    Copy OK
    No errors occurred
    AccurateRip summary
    Track 1 accurately ripped (confidence 4) [BF437CAE] (AR v1)
    Track 2 accurately ripped (confidence 4) [53E116BD] (AR v1)
    Track 3 accurately ripped (confidence 4) [626DC0CD] (AR v1)
    Track 4 accurately ripped (confidence 4) [CB19F235] (AR v1)
    Track 5 accurately ripped (confidence 4) [CB276090] (AR v1)
    Track 6 accurately ripped (confidence 4) [AF56B21E] (AR v1)
    All tracks accurately ripped
    End of status report
    ==== Log checksum 0172FCE45619C222304970A30816E5A0C6C91F0B0CF99C34B0DF76BB8BF63F9A ====
    Код: выделить все
    REM GENRE Doom Metal
    REM DATE 1986
    REM DISCID 4A0A1806
    REM COMMENT ExactAudioCopy v1.0b3
    PERFORMER Candlemass
    TITLE Epicus Doomicus Metallicus
    FILE Epicus Doomicus Metallicus.flac WAVE
    TRACK 01 AUDIO
    TITLE Solitude
    PERFORMER Candlemass
    INDEX 01 00:00:00
    TRACK 02 AUDIO
    TITLE Demon\\'s Gate
    PERFORMER Candlemass
    INDEX 00 05:35:52
    INDEX 01 05:37:50
    TRACK 03 AUDIO
    TITLE Crystal Ball
    PERFORMER Candlemass
    INDEX 00 14:48:17
    INDEX 01 14:50:20
    TRACK 04 AUDIO
    TITLE Black Stone Wielder
    PERFORMER Candlemass
    INDEX 00 20:11:20
    INDEX 01 20:12:07
    TRACK 05 AUDIO
    TITLE Under The Oak
    PERFORMER Candlemass
    INDEX 00 27:47:05
    INDEX 01 27:48:67
    TRACK 06 AUDIO
    TITLE A Sorcerer\\'s Pledge
    PERFORMER Candlemass
    INDEX 00 34:40:42
    INDEX 01 34:44:15
    Код: выделить все
    -----------------------
    DON\\'T MODIFY THIS FILE
    -----------------------
    PERFORMER: auCDtect Task Manager, ver. 1.6.0 RC1 build 1.6.0.1
    Copyright (c) 2008-2010 y-soft. All rights reserved
    http://y-soft.org
    ANALYZER: auCDtect: CD records authenticity detector, version 0.8.2
    Copyright (c) 2004 Oleg Berngardt. All rights reserved.
    Copyright (c) 2004 Alexander Djourik. All rights reserved.
    FILE: Epicus Doomicus Metallicus.flac
    Size: 313180252 Hash: F9BC270967F82E414EB62118996BB80B Accuracy: -m0
    Conclusion: CDDA 100%
    Signature: 69714D320858773E5D173B2D1AA950E047BB3F56


    Candlemass - 11 Albums, 6 Compilations, 3 Lives, 1 Single, 2 EP (1986 - 2016) 41 CD [FLAC|Lossless|image + .cue] <Doom Metal>
    загрузка...
    Рейтинг →
     (голосов: 1, оценка 5/5, голосовать можно 1 раз )

    Другие торренты по теме:



      Комментарии (0):

      Информация

      Информация

        Посетители, находящиеся в группе Гости, не могут оставлять комментарии в данной новости.

        ↓ Меню




        ↓ Опрос

        Вы добавили сайт в закладки?
        Да
        Нет


        Top 10 за месяц (Музыка)