.
Авторизация | Регистрация
Хочешь лучшие торренты? Добавь свой email!
Добавить

Торрент скачать бесплатно

» » Terry Gibbs - Plays Jewish Melodies In Jazztime (1963) 2002, Verve [FLAC|Lossless|tracks + .cue] <Mainstream Jazz> торрент скачать бесплатно




    Terry Gibbs - Plays Jewish Melodies In Jazztime (1963) 2002, Verve [FLAC|Lossless|tracks + .cue] <Mainstream Jazz> торрент скачать бесплатно

    Опубликовал: Админ | Дата: 8-10-2017, 05:00 | Просмотров: 0

    Жанр: Mainstream Jazz
    Издание: Verve - 589 673-2
    Продолжительность: 00: 37: 16
    Кодек: FLAC (tracks+.cue)
    Битрейт: Lossless
    Источник (релизер): TestTickles
    Страна-производитель диска: USA
    Наличие сканов в содержимом раздачи: да

    Треклист

    01. Bei Mir Bist Du Schon 05: 02
    02. Papirossen (Cigarettes) 04: 25
    03. Kazochok (Russian Dance) 02: 51
    04. Vuloch (A Folk Dance) 04: 00
    05. My Yiddishe Momme 03: 05
    06. And the Angels Sing 02: 45
    07. S S 04: 35
    08. Shaine Une Zees (Pretty Sweet) 06: 27
    09. Nyah Shere (New Dance) 04: 12

    EAC extraction logfile from 11. September 2006, 8: 06 for CD
    Terry Gibbs/Terry Gibbs Plays Jewish Melodies in Jazztime
    Used drive : LITE-ON DVDRW SOHW-1633S Adapter: 0 ID: 0
    Read mode : Secure with NO C2, accurate stream, disable cache
    Read offset correction : 12
    Overread into Lead-In and Lead-Out : No
    Used output format : Internal WAV Routines
    44.100 Hz; 16 Bit; Stereo
    Other options :
    Fill up missing offset samples with silence : Yes
    Delete leading and trailing silent blocks : No
    Installed external ASPI interface
    Track 1
    Filename D: \FLAC\Terry Gibbs - Plays Jewish Melodies In Jazztime (1963) FLAC\01 - Bei Mir Bist Du Schon.wav
    Pre-gap length 0: 00: 02.00
    Peak level 86.9 %
    Track quality 100.0 %
    Test CRC 1AA48911
    Copy CRC 1AA48911
    Copy OK
    Track 2
    Filename D: \FLAC\Terry Gibbs - Plays Jewish Melodies In Jazztime (1963) FLAC\02 - Papirossen (Cigarettes).wav
    Pre-gap length 0: 00: 03.73
    Peak level 97.8 %
    Track quality 100.0 %
    Test CRC 15F33365
    Copy CRC 15F33365
    Copy OK
    Track 3
    Filename D: \FLAC\Terry Gibbs - Plays Jewish Melodies In Jazztime (1963) FLAC\03 - Kazochok (Russian Dance).wav
    Pre-gap length 0: 00: 03.86
    Peak level 89.3 %
    Track quality 100.0 %
    Test CRC E4CC57FE
    Copy CRC E4CC57FE
    Copy OK
    Track 4
    Filename D: \FLAC\Terry Gibbs - Plays Jewish Melodies In Jazztime (1963) FLAC\04 - Vuloch (A Folk Dance).wav
    Pre-gap length 0: 00: 04.62
    Peak level 84.3 %
    Track quality 100.0 %
    Test CRC DB071FC3
    Copy CRC DB071FC3
    Copy OK
    Track 5
    Filename D: \FLAC\Terry Gibbs - Plays Jewish Melodies In Jazztime (1963) FLAC\05 - My Yiddishe Momme.wav
    Pre-gap length 0: 00: 03.96
    Peak level 69.4 %
    Track quality 100.0 %
    Test CRC D25E95AD
    Copy CRC D25E95AD
    Copy OK
    Track 6
    Filename D: \FLAC\Terry Gibbs - Plays Jewish Melodies In Jazztime (1963) FLAC\06 - And the Angels Sing.wav
    Pre-gap length 0: 00: 04.54
    Peak level 74.3 %
    Track quality 100.0 %
    Test CRC 7B1F2542
    Copy CRC 7B1F2542
    Copy OK
    Track 7
    Filename D: \FLAC\Terry Gibbs - Plays Jewish Melodies In Jazztime (1963) FLAC\07 - S S.wav
    Pre-gap length 0: 00: 05.30
    Peak level 84.7 %
    Track quality 99.9 %
    Test CRC BDE32976
    Copy CRC BDE32976
    Copy OK
    Track 8
    Filename D: \FLAC\Terry Gibbs - Plays Jewish Melodies In Jazztime (1963) FLAC\08 - Shaine Une Zees (Pretty Sweet).wav
    Pre-gap length 0: 00: 03.77
    Peak level 89.7 %
    Track quality 100.0 %
    Test CRC 4FCDE211
    Copy CRC 4FCDE211
    Copy OK
    Track 9
    Filename D: \FLAC\Terry Gibbs - Plays Jewish Melodies In Jazztime (1963) FLAC\09 - Nyah Shere (New Dance).wav
    Pre-gap length 0: 00: 03.97
    Peak level 85.8 %
    Track quality 99.9 %
    Test CRC B2FF2127
    Copy CRC B2FF2127
    Copy OK
    No errors occured
    End of status report

    REM GENRE Jazz
    REM DATE 1963
    REM DISCID 8508BB09
    REM COMMENT ExactAudioCopy v0.95b4
    PERFORMER Terry Gibbs
    TITLE Terry Gibbs Plays Jewish Melodies in Jazztime
    FILE 01 - Bei Mir Bist Du Schon.wav WAVE
    TRACK 01 AUDIO
    TITLE Bei Mir Bist Du Schon
    PERFORMER Terry Gibbs
    INDEX 01 00: 00: 00
    TRACK 02 AUDIO
    TITLE Papirossen (Cigarettes)
    PERFORMER Terry Gibbs
    INDEX 00 04: 57: 50
    FILE 02 - Papirossen (Cigarettes).wav WAVE
    INDEX 01 00: 00: 00
    TRACK 03 AUDIO
    TITLE Kazochok (Russian Dance)
    PERFORMER Terry Gibbs
    INDEX 00 04: 20: 23
    FILE 03 - Kazochok (Russian Dance).wav WAVE
    INDEX 01 00: 00: 00
    TRACK 04 AUDIO
    TITLE Vuloch (A Folk Dance)
    PERFORMER Terry Gibbs
    INDEX 00 02: 45: 30
    FILE 04 - Vuloch (A Folk Dance).wav WAVE
    INDEX 01 00: 00: 00
    TRACK 05 AUDIO
    TITLE My Yiddishe Momme
    PERFORMER Terry Gibbs
    INDEX 00 03: 55: 28
    FILE 05 - My Yiddishe Momme.wav WAVE
    INDEX 01 00: 00: 00
    TRACK 06 AUDIO
    TITLE And the Angels Sing
    PERFORMER Terry Gibbs
    INDEX 00 02: 59: 45
    FILE 06 - And the Angels Sing.wav WAVE
    INDEX 01 00: 00: 00
    TRACK 07 AUDIO
    TITLE S S
    PERFORMER Terry Gibbs
    INDEX 00 02: 39: 24
    FILE 07 - S S.wav WAVE
    INDEX 01 00: 00: 00
    TRACK 08 AUDIO
    TITLE Shaine Une Zees (Pretty Sweet)
    PERFORMER Terry Gibbs
    INDEX 00 04: 30: 37
    FILE 08 - Shaine Une Zees (Pretty Sweet).wav WAVE
    INDEX 01 00: 00: 00
    TRACK 09 AUDIO
    TITLE Nyah Shere (New Dance)
    PERFORMER Terry Gibbs
    INDEX 00 06: 22: 19
    FILE 09 - Nyah Shere (New Dance).wav WAVE
    INDEX 01 00: 00: 00

    -----------------------
    DON\\'T MODIFY THIS FILE
    -----------------------
    PERFORMER: auCDtect Task Manager, ver. 1.6.0 RC1 build 1.6.0.1
    Copyright (c) 2008-2010 y-soft. All rights reserved
    http://y-soft.org
    ANALYZER: auCDtect: CD records authenticity detector, version 0.8.2
    Copyright (c) 2004 Oleg Berngardt. All rights reserved.
    Copyright (c) 2004 Alexander Djourik. All rights reserved.
    FILE: 09 - Nyah Shere (New Dance).flac
    Size: 29712720 Hash: E10FBB0EE17DCAD5B4CCD3A3025A9FB0 Accuracy: -m0
    Conclusion: CDDA 100%
    Signature: D68AAE04A4E3F598FDD4B44AF1AD02474DA81E47
    FILE: 08 - Shaine Une Zees (Pretty Sweet).flac
    Size: 37440766 Hash: 36C661B245754AA7A9BD5EE8053F5727 Accuracy: -m0
    Conclusion: CDDA 100%
    Signature: 315D817B47DB8F3C8F5BEE6A06D2EDF9D5E4FA40
    FILE: 07 - S S.flac
    Size: 31171845 Hash: FD4594D9D9304DDEC32EB3A326F70835 Accuracy: -m0
    Conclusion: CDDA 100%
    Signature: 28619CFFDFDB99FDE3C44D1F175B5DADD13CA58A
    FILE: 06 - And the Angels Sing.flac
    Size: 15684695 Hash: B9558507EE06D7B6C84275022958A3C4 Accuracy: -m0
    Conclusion: CDDA 100%
    Signature: BA099CB24EF8EF0E67A6E9520C811ECD71343488
    FILE: 05 - My Yiddishe Momme.flac
    Size: 17321999 Hash: 2E1AB92CA3A34AEF2BBA362FC91C1C01 Accuracy: -m0
    Conclusion: CDDA 100%
    Signature: CC3682F39702A5F15B4164C752A8BEC858B9FF2F
    FILE: 04 - Vuloch (A Folk Dance).flac
    Size: 27286292 Hash: 2DC02EEA9655070396E1283ADC0BADA7 Accuracy: -m0
    Conclusion: CDDA 100%
    Signature: 2CFC3523E7CB264EFED07B828284FE1F2C8BEE86
    FILE: 03 - Kazochok (Russian Dance).flac
    Size: 19018772 Hash: B901DF12139CE5F32EEB2CD285067DA3 Accuracy: -m0
    Conclusion: CDDA 100%
    Signature: ED33984256B86D8D639644E1C893061BAC5EC56E
    FILE: 02 - Papirossen (Cigarettes).flac
    Size: 26272360 Hash: D562EC09B4760A5B3262770784E3F41F Accuracy: -m0
    Conclusion: CDDA 85%
    Signature: 41B581CDF8ECDCEF825C07EA05A0BF344736AFF5
    FILE: 01 - Bei Mir Bist Du Schon.flac
    Size: 32376824 Hash: DB32AF097861D97CA6F1D2F7DDF627BA Accuracy: -m0
    Conclusion: CDDA 100%
    Signature: B26FBD6929E8193A3EB2BA0A9A3EEB4CA7580A51
    Время раздачи: c 15: 00 до 22: 00 (до появления первых 3-5 скачавших)

    Terry Gibbs - Plays Jewish Melodies In Jazztime (1963) 2002, Verve [FLAC|Lossless|tracks + .cue] <Mainstream Jazz>
    загрузка...
    Рейтинг →
     (голосов: 1, оценка 3/5, голосовать можно 1 раз )

    Другие торренты по теме:

  • Terry Gibbs - The Exciting Terry Gibbs Big Band + Swing Is Here! (1960 / 1961) / 2011, Poll Winners Records / [FLAC|tracks+.cue]<Big Band, Mainstream Jazz> скачать через торрент бесплатно
  • Terry Gibbs Quartet - Take It From Me (1964) Remaster, 2010, Universal[FLAC|Lossless|tracks + .cue] <West Coast Jazz, Cool>
  • Terry Gibbs And His Big Band - Swing Is Here! (1960) 2009, Universal[FLAC|Lossless|tracks + .cue] <Mainstream Jazz, Big Band>
  • Terry Gibbs - Bopstacle Course (1974) Xanadu Records [FLAC|Lossless|tracks + .cue] <Mainstream Jazz, Cool>
  • Terry Gibbs - Hootenanny My Way (1963) 2017, Solid Records [FLAC|Lossless|tracks + .cue] <Mainstream Jazz>


    • Комментарии (0):

      Информация

      Информация

        Посетители, находящиеся в группе Гости, не могут оставлять комментарии в данной новости.

        ↓ Меню




        ↓ Опрос

        Вы добавили сайт в закладки?
        Да
        Нет


        Top 10 за месяц (Музыка)