.
Авторизация | Регистрация
Хочешь лучшие торренты? Добавь свой email!
Добавить

Торрент скачать бесплатно

» » DROELOE - A Moment In Time (2017) EP [MP3|320 Kbps] <Electronic> торрент скачать бесплатно




    DROELOE - A Moment In Time (2017) EP [MP3|320 Kbps] <Electronic> торрент скачать бесплатно

    Опубликовал: Админ | Дата: 8-10-2017, 05:00 | Просмотров: 0

    Жанр: Electronic, Future Beats, Future Bass
    Издание: bitbird
    Источник: beatport
    Продолжительность: 00: 16: 06
    Кодек: MP3
    Битрейт: 320 Kbps

    Треклист

    01. Back When (1997)
    02. Sunburn
    03. Lilypads
    04. Homebound
    05. Just Now (2017)

    Описание

    Этот EP о небольших моментах и мелочах в жизни. Небольшие моменты складываются в результат всего, что вы делаете, и всего, что происходит с вами. Каждый трек на EP вдохновлен одним из таких моментов из нашей собственной жизни. Опыт поездки в США в первый раз. Чувство полного контроля во время выступления на сцене, но переживания по поводу этой бутылки воды, которую вы хотите купить в аэропорту, когда у вас мало денег.

    YouTubeYouTubeYouTubeYouTubeYouTube

    Общее
    Полное имя : D: \Releases\DROELOE - A Moment in Time (2017) MP3\04 Homebound.mp3
    Формат : MPEG Audio
    Размер файла : 8, 11 Мбайт
    Продолжительность : 3 м. 29 с.
    Режим общего битрейта : Постоянный
    Общий поток : 320 Кбит/сек
    Альбом : A Moment In Time
    Альбом/Исполнитель : DROELOE
    Трек : Homebound
    Трек/Положение : 4
    Трек/Всего : 5
    Исполнитель : DROELOE
    Жанр : Future Beats
    Дата записи : 2017
    Библиотека кодирования : LAME3.99.5ЄЄЄЄЄЄЄ
    Обложка : Yes
    Тип обложки : Cover (front)
    MIME-тип обложки : image/jpeg
    Official audio source webpage : NNM-Club.name
    Аудио
    Формат : MPEG Audio
    Версия формата : Version 1
    Профиль формата : Layer 3
    Настройки формата : Joint stereo
    Режим : Joint stereo
    Продолжительность : 3 м. 29 с.
    Вид битрейта : Постоянный
    Битрейт : 320 Кбит/сек
    Каналы : 2 канала
    Частота : 44, 1 КГц
    Метод сжатия : С потерями
    Размер потока : 7, 99 Мбайт (98%)
    Библиотека кодирования : LAME3.99.5ЄЄЄЄЄЄЄ
    Общее
    Полное имя : D: \Releases\DROELOE - A Moment in Time (2017) MP3\05 Just Now (2017).mp3
    Формат : MPEG Audio
    Размер файла : 5, 16 Мбайт
    Продолжительность : 2 м. 12 с.
    Режим общего битрейта : Постоянный
    Общий поток : 320 Кбит/сек
    Альбом : A Moment In Time
    Альбом/Исполнитель : DROELOE
    Трек : Just Now (2017)
    Трек/Положение : 5
    Трек/Всего : 5
    Исполнитель : DROELOE
    Жанр : Future Beats
    Дата записи : 2017
    Библиотека кодирования : LAME3.99.5ЄЄЄЄЄЄЄЄЄЄ
    Обложка : Yes
    Тип обложки : Cover (front)
    MIME-тип обложки : image/jpeg
    Official audio source webpage : NNM-Club.name
    Аудио
    Формат : MPEG Audio
    Версия формата : Version 1
    Профиль формата : Layer 3
    Настройки формата : Joint stereo
    Режим : Joint stereo
    Продолжительность : 2 м. 12 с.
    Вид битрейта : Постоянный
    Битрейт : 320 Кбит/сек
    Каналы : 2 канала
    Частота : 44, 1 КГц
    Метод сжатия : С потерями
    Размер потока : 5, 04 Мбайт (98%)
    Библиотека кодирования : LAME3.99.5ЄЄЄЄЄЄЄЄЄЄ
    Общее
    Полное имя : D: \Releases\DROELOE - A Moment in Time (2017) MP3\01 Back When (1997).mp3
    Формат : MPEG Audio
    Размер файла : 6, 02 Мбайт
    Продолжительность : 2 м. 34 с.
    Режим общего битрейта : Постоянный
    Общий поток : 320 Кбит/сек
    Альбом : A Moment In Time
    Альбом/Исполнитель : DROELOE
    Трек : Back When (1997)
    Трек/Положение : 1
    Трек/Всего : 5
    Исполнитель : DROELOE
    Жанр : Future Beats
    Дата записи : 2017
    Библиотека кодирования : LAME3.99.5UUUUUUU¤
    Обложка : Yes
    Тип обложки : Cover (front)
    MIME-тип обложки : image/jpeg
    Official audio source webpage : NNM-Club.name
    Аудио
    Формат : MPEG Audio
    Версия формата : Version 1
    Профиль формата : Layer 3
    Настройки формата : Joint stereo
    Режим : Joint stereo
    Продолжительность : 2 м. 34 с.
    Вид битрейта : Постоянный
    Битрейт : 320 Кбит/сек
    Каналы : 2 канала
    Частота : 44, 1 КГц
    Метод сжатия : С потерями
    Размер потока : 5, 90 Мбайт (98%)
    Библиотека кодирования : LAME3.99.5UUUUUUU¤
    Общее
    Полное имя : D: \Releases\DROELOE - A Moment in Time (2017) MP3\02 Sunburn.mp3
    Формат : MPEG Audio
    Размер файла : 8, 78 Мбайт
    Продолжительность : 3 м. 47 с.
    Режим общего битрейта : Постоянный
    Общий поток : 320 Кбит/сек
    Альбом : A Moment In Time
    Альбом/Исполнитель : DROELOE
    Трек : Sunburn
    Трек/Положение : 2
    Трек/Всего : 5
    Исполнитель : DROELOE
    Жанр : Future Bass
    Дата записи : 2017
    Библиотека кодирования : LAMEЄ12ў5Э05
    Обложка : Yes
    Тип обложки : Cover (front)
    MIME-тип обложки : image/jpeg
    Official audio source webpage : NNM-Club.name
    Аудио
    Формат : MPEG Audio
    Версия формата : Version 1
    Профиль формата : Layer 3
    Настройки формата : Joint stereo
    Режим : Joint stereo
    Продолжительность : 3 м. 47 с.
    Вид битрейта : Постоянный
    Битрейт : 320 Кбит/сек
    Каналы : 2 канала
    Частота : 44, 1 КГц
    Метод сжатия : С потерями
    Размер потока : 8, 66 Мбайт (99%)
    Библиотека кодирования : LAMEЄ12ў5Э05
    Общее
    Полное имя : D: \Releases\DROELOE - A Moment in Time (2017) MP3\03 Lilypads.mp3
    Формат : MPEG Audio
    Размер файла : 9, 39 Мбайт
    Продолжительность : 4 м. 3 с.
    Режим общего битрейта : Постоянный
    Общий поток : 320 Кбит/сек
    Альбом : A Moment In Time
    Альбом/Исполнитель : DROELOE
    Трек : Lilypads
    Трек/Положение : 3
    Трек/Всего : 5
    Исполнитель : DROELOE
    Жанр : Future Beats
    Дата записи : 2017
    Библиотека кодирования : LAME3.99.5ЄЄЄЄЄЄЄЄЄЄ
    Обложка : Yes
    Тип обложки : Cover (front)
    MIME-тип обложки : image/jpeg
    Official audio source webpage : NNM-Club.name
    Аудио
    Формат : MPEG Audio
    Версия формата : Version 1
    Профиль формата : Layer 3
    Настройки формата : Joint stereo
    Режим : Joint stereo
    Продолжительность : 4 м. 3 с.
    Вид битрейта : Постоянный
    Битрейт : 320 Кбит/сек
    Каналы : 2 канала
    Частота : 44, 1 КГц
    Метод сжатия : С потерями
    Размер потока : 9, 27 Мбайт (99%)
    Библиотека кодирования : LAME3.99.5ЄЄЄЄЄЄЄЄЄЄ
    Время раздачи: 24/7 (круглосуточно) до появления первых 5-10 скачавших

    DROELOE - A Moment In Time (2017) EP [MP3|320 Kbps] <Electronic>
    загрузка...
    Рейтинг →
     (голосов: 1, оценка 3/5, голосовать можно 1 раз )

    Другие торренты по теме:



      Комментарии (0):

      Информация

      Информация

        Посетители, находящиеся в группе Гости, не могут оставлять комментарии в данной новости.

        ↓ Меню




        ↓ Опрос

        Вы добавили сайт в закладки?
        Да
        Нет


        Top 10 за месяц (Музыка)