.
Авторизация | Регистрация
Хочешь лучшие торренты? Добавь свой email!
Добавить

Торрент скачать бесплатно

» » Rob Brown Ensemble - Crown Trunk Root Funk (2008) AumFidelity [FLAC|Lossless|tracks + .cue] <Avant-Garde Jazz, Free Improvisation> торрент скачать бесплатно




    Rob Brown Ensemble - Crown Trunk Root Funk (2008) AumFidelity [FLAC|Lossless|tracks + .cue] <Avant-Garde Jazz, Free Improvisation> торрент скачать бесплатно

    Опубликовал: Админ | Дата: 11-09-2017, 05:00 | Просмотров: 0

    Жанр: Avant-Garde Jazz, Free Improvisation
    Издание: AumFidelity - AUM044
    Продолжительность: 00: 59: 24
    Кодек: FLAC (tracks+.cue)
    Битрейт: Lossless
    Источник (релизер): mishka1981
    Наличие сканов в содержимом раздачи: да

    Треклист

    01. Rocking Horse 10: 58
    02. Clearly Speaking 06: 57
    03. Sonic Ecosystem 11: 18
    04. Ghost Dog 07: 34
    05. Exuberance 06: 19
    06. Lifeboat 06: 30
    07. Worlds Spinning 09: 52

    Exact Audio Copy V1.0 beta 1 from 15. November 2010
    EAC extraction logfile from 5. April 2012, 13: 28
    Rob Brown Ensemble/Crown Trunk Root Funk
    Used drive : Optiarc DVD RW AD-7710H Adapter: 1 ID: 0
    Read mode : Secure
    Utilize accurate stream : Yes
    Defeat audio cache : Yes
    Make use of C2 pointers : No
    Read offset correction : 48
    Overread into Lead-In and Lead-Out : No
    Fill up missing offset samples with silence : Yes
    Delete leading and trailing silent blocks : No
    Null samples used in CRC calculations : Yes
    Used interface : Native Win32 interface for Win NT 2000
    Gap handling : Appended to previous track
    Used output format : User Defined Encoder
    Selected bitrate : 896 kBit/s
    Quality : High
    Add ID3 tag : No
    Command line compressor : C: Program FilesExact Audio CopyFLACFLAC.EXE
    Additional command line options : -8 -V -T ARTIST=%a -T TITLE=%t -T ALBUM=%g -T DATE=%y -T TRACKNUMBER=%n -T GENRE=%m -T COMMENT=%e %j--picture=%i%j %s -o %d
    TOC of the extracted CD
    Track | Start | Length | Start sector | End sector
    ---------------------------------------------------------
    1 | 0: 00.00 | 10: 57.23 | 0 | 49297
    2 | 10: 57.23 | 6: 56.29 | 49298 | 80526
    3 | 17: 53.52 | 11: 17.50 | 80527 | 131351
    4 | 29: 11.27 | 7: 33.28 | 131352 | 165354
    5 | 36: 44.55 | 6: 18.05 | 165355 | 193709
    6 | 43: 02.60 | 6: 29.55 | 193710 | 222939
    7 | 49: 32.40 | 9: 51.16 | 222940 | 267280
    Track 1
    Filename C: MY RIPS1 - Rocking Horse.wav
    Pre-gap length 0: 00: 02.00
    Peak level 98.8 %
    Extraction speed 3.3 X
    Track quality 100.0 %
    Test CRC 1DE781F6
    Copy CRC 1DE781F6
    Accurately ripped (confidence 6) F5547B13
    Copy OK
    Track 2
    Filename C: MY RIPS2 - Clearly Speaking.wav
    Pre-gap length 0: 00: 02.00
    Peak level 98.8 %
    Extraction speed 3.4 X
    Track quality 99.9 %
    Test CRC CB2C154C
    Copy CRC CB2C154C
    Accurately ripped (confidence 7) 2354E885
    Copy OK
    Track 3
    Filename C: MY RIPS3 - Sonic Ecosystem.wav
    Pre-gap length 0: 00: 02.00
    Peak level 98.8 %
    Extraction speed 4.5 X
    Track quality 100.0 %
    Test CRC BAE75864
    Copy CRC BAE75864
    Accurately ripped (confidence 6) 1633BB8C
    Copy OK
    Track 4
    Filename C: MY RIPS4 - Ghost Dog.wav
    Pre-gap length 0: 00: 02.00
    Peak level 98.8 %
    Extraction speed 4.9 X
    Track quality 100.0 %
    Test CRC A1640F32
    Copy CRC A1640F32
    Accurately ripped (confidence 7) 3501B417
    Copy OK
    Track 5
    Filename C: MY RIPS5 - Exuberance.wav
    Pre-gap length 0: 00: 02.00
    Peak level 98.8 %
    Extraction speed 5.1 X
    Track quality 100.0 %
    Test CRC 25B9EFE9
    Copy CRC 25B9EFE9
    Accurately ripped (confidence 6) 8D7FD52E
    Copy OK
    Track 6
    Filename C: MY RIPS6 - Lifeboat.wav
    Pre-gap length 0: 00: 02.00
    Peak level 98.8 %
    Extraction speed 5.4 X
    Track quality 100.0 %
    Test CRC 1E88CF00
    Copy CRC 1E88CF00
    Accurately ripped (confidence 6) 466389E2
    Copy OK
    Track 7
    Filename C: MY RIPS7 - Worlds Spinning.wav
    Pre-gap length 0: 00: 02.00
    Peak level 98.8 %
    Extraction speed 5.9 X
    Track quality 100.0 %
    Test CRC D3A6239C
    Copy CRC D3A6239C
    Accurately ripped (confidence 7) 3E47AB15
    Copy OK
    All tracks accurately ripped
    No errors occurred
    End of status report
    ==== Log checksum 3BE9A0D9AA0265C09BA2A42D2CC88154F3BB91A437DFCB9B8431C9E8195AB051 ====

    REM DISCID 660DEB07
    REM COMMENT ExactAudioCopy v1.0b1
    PERFORMER Rob Brown Ensemble
    TITLE Crown Trunk Root Funk
    FILE 01 - Rocking Horse.wav WAVE
    TRACK 01 AUDIO
    TITLE Rocking Horse
    PERFORMER Rob Brown Ensemble
    INDEX 01 00: 00: 00
    TRACK 02 AUDIO
    TITLE Clearly Speaking
    PERFORMER Rob Brown Ensemble
    INDEX 00 10: 55: 23
    FILE 02 - Clearly Speaking.wav WAVE
    INDEX 01 00: 00: 00
    TRACK 03 AUDIO
    TITLE Sonic Ecosystem
    PERFORMER Rob Brown Ensemble
    INDEX 00 06: 54: 29
    FILE 03 - Sonic Ecosystem.wav WAVE
    INDEX 01 00: 00: 00
    TRACK 04 AUDIO
    TITLE Ghost Dog
    PERFORMER Rob Brown Ensemble
    INDEX 00 11: 15: 50
    FILE 04 - Ghost Dog.wav WAVE
    INDEX 01 00: 00: 00
    TRACK 05 AUDIO
    TITLE Exuberance
    PERFORMER Rob Brown Ensemble
    INDEX 00 07: 31: 28
    FILE 05 - Exuberance.wav WAVE
    INDEX 01 00: 00: 00
    TRACK 06 AUDIO
    TITLE Lifeboat
    PERFORMER Rob Brown Ensemble
    INDEX 00 06: 16: 05
    FILE 06 - Lifeboat.wav WAVE
    INDEX 01 00: 00: 00
    TRACK 07 AUDIO
    TITLE Worlds Spinning
    PERFORMER Rob Brown Ensemble
    INDEX 00 06: 27: 55
    FILE 07 - Worlds Spinning.wav WAVE
    INDEX 01 00: 00: 00

    -----------------------
    DON\'T MODIFY THIS FILE
    -----------------------
    PERFORMER: auCDtect Task Manager, ver. 1.6.0 RC1 build 1.6.0.1
    Copyright (c) 2008-2010 y-soft. All rights reserved
    http://y-soft.org
    ANALYZER: auCDtect: CD records authenticity detector, version 0.8.2
    Copyright (c) 2004 Oleg Berngardt. All rights reserved.
    Copyright (c) 2004 Alexander Djourik. All rights reserved.
    FILE: 07 - Worlds Spinning.flac
    Size: 57892436 Hash: E9E7A53047782EB4E470EDA4E30EA908 Accuracy: -m0
    Conclusion: CDDA 100%
    Signature: 01E3A866769A49E611E69096665D8F8DEDCC98E4
    FILE: 06 - Lifeboat.flac
    Size: 43696078 Hash: 8EE7BF5BC6064B2074F76A2F6536D42B Accuracy: -m0
    Conclusion: CDDA 100%
    Signature: F5A9627C0BA763A070F147DC346984FC31F212A4
    FILE: 05 - Exuberance.flac
    Size: 42725544 Hash: D03EA6793D634902A0577C950A2CB175 Accuracy: -m0
    Conclusion: CDDA 100%
    Signature: 9E62C248BF48BDEC7351435DB09619528B9E1E83
    FILE: 04 - Ghost Dog.flac
    Size: 46275798 Hash: F48DA145396319527B00968BE8C55600 Accuracy: -m0
    Conclusion: CDDA 99%
    Signature: B68F9F84A2F8217FAC1566FE5F51AEC6641FE42C
    FILE: 03 - Sonic Ecosystem.flac
    Size: 58622978 Hash: 8A3CC8735CC0020309F07F60FC967F11 Accuracy: -m0
    Conclusion: CDDA 100%
    Signature: 079C9483D448856D6F2AD9CA300FF92BE57F6F78
    FILE: 02 - Clearly Speaking.flac
    Size: 47493132 Hash: AAD89A84720B8D1B67C3FC3131312F0E Accuracy: -m0
    Conclusion: CDDA 100%
    Signature: DE9981010DCDFF337477174408FFE888BA8D44F8
    FILE: 01 - Rocking Horse.flac
    Size: 72717114 Hash: 3E496626D9B0B75F552E4EED4CFF843E Accuracy: -m0
    Conclusion: CDDA 100%
    Signature: 49CAE083577B4C83C6DDD0D2B2A9D4D7EA553E2C


    Rob Brown Ensemble - Crown Trunk Root Funk (2008) AumFidelity [FLAC|Lossless|tracks + .cue] <Avant-Garde Jazz, Free Improvisation>
    загрузка...
    Рейтинг →
     (голосов: 1, оценка 3/5, голосовать можно 1 раз )

    Другие торренты по теме:

  • Ray Brown - The Red Hot Ray Brown Trio (2005) [FLAC|Lossless]<Jazz, Mainstream Jazz> скачать через торрент бесплатно
  • Future Brown - Future Brown (2015) Japanese Edition [FLAC|Lossless|tracks + .cue] <Electronic, Grime, Trap>
  • Clifford Brown & Max Roach - Clifford Brown & Max Roach (1955) 2000 [WavPack|Lossless|image + .cue] <Bop, Hard bop>
  • Brownout Presents Brown Sabbath - Brown Sabbath Vol. II (2016) [MP3|320 Kbps] <Psychedelic, Stoner Rock, Funk>
  • Clifford Brown & Max Roach - Brown and Roach Incorporated (1954) 2004, Universal [FLAC|Lossless|tracks + .cue] <Hard Bop, Bop>
  • Apollo Brown & Planet Asia - Abrasions: Stitched Up (2014) EP [FLAC|Lossless] <Rap, Hip-Hop> скачать через торрент бесплатно
  • Smokie feat. R.C.Brown - Living Next Door To Alice (1995) [APE|Lossless]<Soft Rock-PopRock> скачать через торрент бесплатно
  • Отец Браун / Патер Браун / Father Brown (2015) HDTVRip (сезон 3, серии 1 из 15) Райдо (обновляемая)


    • Комментарии (0):

      Информация

      Информация

        Посетители, находящиеся в группе Гости, не могут оставлять комментарии в данной новости.

        ↓ Меню




        ↓ Опрос

        Вы добавили сайт в закладки?
        Да
        Нет


        Top 10 за месяц (Музыка)