.
Авторизация | Регистрация
Хочешь лучшие торренты? Добавь свой email!
Добавить

Торрент скачать бесплатно

» » Rick Derringer - Tend The Fire (1996) [FLAC|Lossless|tracks + .cue] <Blues Rock, Electric Blues> торрент скачать бесплатно




    Rick Derringer - Tend The Fire (1996) [FLAC|Lossless|tracks + .cue] <Blues Rock, Electric Blues> торрент скачать бесплатно

    Опубликовал: Админ | Дата: 11-09-2017, 05:00 | Просмотров: 1

    Жанр: Blues Rock, Electric Blues
    Продолжительность: 00: 51: 32
    Кодек: FLAC
    Битрейт: Lossless
    Тип рипа: tracks + .cue

    Треклист

    01. I\'m Set On You(05: 36)
    02. Wound Up Tight(04: 45)
    03. Who Do You Love?(05: 32)
    04. Big Time Love(05: 10)
    05. Talk To Me(05: 41)
    06. Too Sorry(02: 30)
    07. Wrong Side Of Paradise(03: 55)
    08. Tough On Me, Tough Oh You(04: 32)
    09. I\'m In Love(02: 51)
    10. I\'m Doing Fine(03: 59)
    11. I\'ll Be Loving You(06: 57)

    Exact Audio Copy V0.99 prebeta 4 from 23. January 2008
    EAC extraction logfile from 24. March 2009, 7: 14
    Rick Derringer/Tend The Fire
    Used drive : PLEXTOR CD-R PX-320A Adapter: 1 ID: 0
    Read mode : Secure
    Utilize accurate stream : Yes
    Defeat audio cache : Yes
    Make use of C2 pointers : No
    Read offset correction : 98
    Overread into Lead-In and Lead-Out : No
    Fill up missing offset samples with silence : Yes
    Delete leading and trailing silent blocks : No
    Null samples used in CRC calculations : Yes
    Used interface : Native Win32 interface for Win NT 2000
    Gap handling : Appended to previous track
    Used output format : User Defined Encoder
    Selected bitrate : 128 kBit/s
    Quality : High
    Add ID3 tag : No
    Command line compressor : E: Program FilesFLACflac.exe
    Additional command line options : -8 -V -T ARTIST=%a -T TITLE=%t -T ALBUM=%g -T DATE=%y -T TRACKNUMBER=%n -T GENRE=%m -T COMMENT=EAC FLAC -8 %s
    TOC of the extracted CD
    Track | Start | Length | Start sector | End sector
    ---------------------------------------------------------
    1 | 0: 00.00 | 5: 36.72 | 0 | 25271
    2 | 5: 36.72 | 4: 45.12 | 25272 | 46658
    3 | 10: 22.09 | 5: 32.42 | 46659 | 71600
    4 | 15: 54.51 | 5: 10.02 | 71601 | 94852
    5 | 21: 04.53 | 5: 41.19 | 94853 | 120446
    6 | 26: 45.72 | 2: 30.17 | 120447 | 131713
    7 | 29: 16.14 | 3: 55.10 | 131714 | 149348
    8 | 33: 11.24 | 4: 32.72 | 149349 | 169820
    9 | 37: 44.21 | 2: 51.37 | 169821 | 182682
    10 | 40: 35.58 | 3: 59.17 | 182683 | 200624
    11 | 44: 35.00 | 6: 57.52 | 200625 | 231951
    Track 1
    Filename E: Rick Derringer - Tend The Fire (1996) FLAC1 - I\'m Set On You.wav
    Pre-gap length 0: 00: 02.00
    Peak level 100.0 %
    Track quality 100.0 %
    Test CRC 15C26B05
    Copy CRC 15C26B05
    Track not present in AccurateRip database
    Copy OK
    Track 2
    Filename E: Rick Derringer - Tend The Fire (1996) FLAC2 - Wound Up Tight.wav
    Pre-gap length 0: 00: 01.76
    Peak level 100.0 %
    Track quality 100.0 %
    Test CRC 535E8418
    Copy CRC 535E8418
    Track not present in AccurateRip database
    Copy OK
    Track 3
    Filename E: Rick Derringer - Tend The Fire (1996) FLAC3 - Who Do You Love .wav
    Pre-gap length 0: 00: 01.92
    Peak level 100.0 %
    Track quality 100.0 %
    Test CRC B8654C74
    Copy CRC B8654C74
    Track not present in AccurateRip database
    Copy OK
    Track 4
    Filename E: Rick Derringer - Tend The Fire (1996) FLAC4 - Big Time Love.wav
    Pre-gap length 0: 00: 02.00
    Peak level 100.0 %
    Track quality 100.0 %
    Test CRC AB4C4312
    Copy CRC AB4C4312
    Track not present in AccurateRip database
    Copy OK
    Track 5
    Filename E: Rick Derringer - Tend The Fire (1996) FLAC5 - Talk To Me.wav
    Pre-gap length 0: 00: 01.74
    Peak level 100.0 %
    Track quality 100.0 %
    Test CRC 35C02DBD
    Copy CRC 35C02DBD
    Track not present in AccurateRip database
    Copy OK
    Track 6
    Filename E: Rick Derringer - Tend The Fire (1996) FLAC6 - Too Sorry.wav
    Pre-gap length 0: 00: 01.84
    Peak level 100.0 %
    Track quality 100.0 %
    Test CRC 5B05922F
    Copy CRC 5B05922F
    Track not present in AccurateRip database
    Copy OK
    Track 7
    Filename E: Rick Derringer - Tend The Fire (1996) FLAC7 - Wrong Side Of Paradise.wav
    Pre-gap length 0: 00: 01.66
    Peak level 100.0 %
    Track quality 100.0 %
    Test CRC 4D220ACF
    Copy CRC 4D220ACF
    Track not present in AccurateRip database
    Copy OK
    Track 8
    Filename E: Rick Derringer - Tend The Fire (1996) FLAC8 - Tough On Me, Tough Oh You.wav
    Pre-gap length 0: 00: 01.74
    Peak level 100.0 %
    Track quality 99.9 %
    Test CRC DC68FDE9
    Copy CRC DC68FDE9
    Track not present in AccurateRip database
    Copy OK
    Track 9
    Filename E: Rick Derringer - Tend The Fire (1996) FLAC9 - I\'m In Love.wav
    Pre-gap length 0: 00: 01.74
    Peak level 95.5 %
    Track quality 100.0 %
    Test CRC F8CAF03C
    Copy CRC F8CAF03C
    Track not present in AccurateRip database
    Copy OK
    Track 10
    Filename E: Rick Derringer - Tend The Fire (1996) FLAC10 - I\'m Doing Fine.wav
    Pre-gap length 0: 00: 01.72
    Peak level 100.0 %
    Track quality 100.0 %
    Test CRC DF4B5899
    Copy CRC DF4B5899
    Track not present in AccurateRip database
    Copy OK
    Track 11
    Filename E: Rick Derringer - Tend The Fire (1996) FLAC11 - I\'ll Be Loving You.wav
    Pre-gap length 0: 00: 01.72
    Peak level 100.0 %
    Track quality 99.9 %
    Test CRC 5E3A46A8
    Copy CRC 5E3A46A8
    Track not present in AccurateRip database
    Copy OK
    None of the tracks are present in the AccurateRip database
    No errors occurred
    End of status report

    REM GENRE Blues
    REM DATE 1996
    REM DISCID AE0C140B
    REM COMMENT ExactAudioCopy v0.99pb4
    PERFORMER Rick Derringer
    TITLE Tend The Fire
    FILE 01 - I\'m Set On You.wav WAVE
    TRACK 01 AUDIO
    TITLE I\'m Set On You
    PERFORMER Rick Derringer
    INDEX 01 00: 00: 00
    TRACK 02 AUDIO
    TITLE Wound Up Tight
    PERFORMER Rick Derringer
    INDEX 00 05: 35: 15
    FILE 02 - Wound Up Tight.wav WAVE
    INDEX 01 00: 00: 00
    TRACK 03 AUDIO
    TITLE Who Do You Love?
    PERFORMER Rick Derringer
    INDEX 00 04: 43: 18
    FILE 03 - Who Do You Love .wav WAVE
    INDEX 01 00: 00: 00
    TRACK 04 AUDIO
    TITLE Big Time Love
    PERFORMER Rick Derringer
    INDEX 00 05: 30: 42
    FILE 04 - Big Time Love.wav WAVE
    INDEX 01 00: 00: 00
    TRACK 05 AUDIO
    TITLE Talk To Me
    PERFORMER Rick Derringer
    INDEX 00 05: 08: 21
    FILE 05 - Talk To Me.wav WAVE
    INDEX 01 00: 00: 00
    TRACK 06 AUDIO
    TITLE Too Sorry
    PERFORMER Rick Derringer
    INDEX 00 05: 39: 31
    FILE 06 - Too Sorry.wav WAVE
    INDEX 01 00: 00: 00
    TRACK 07 AUDIO
    TITLE Wrong Side Of Paradise
    PERFORMER Rick Derringer
    INDEX 00 02: 28: 42
    FILE 07 - Wrong Side Of Paradise.wav WAVE
    INDEX 01 00: 00: 00
    TRACK 08 AUDIO
    TITLE Tough On Me, Tough Oh You
    PERFORMER Rick Derringer
    INDEX 00 03: 53: 29
    FILE 08 - Tough On Me, Tough Oh You.wav WAVE
    INDEX 01 00: 00: 00
    TRACK 09 AUDIO
    TITLE I\'m In Love
    PERFORMER Rick Derringer
    INDEX 00 04: 31: 16
    FILE 09 - I\'m In Love.wav WAVE
    INDEX 01 00: 00: 00
    TRACK 10 AUDIO
    TITLE I\'m Doing Fine
    PERFORMER Rick Derringer
    INDEX 00 02: 49: 58
    FILE 10 - I\'m Doing Fine.wav WAVE
    INDEX 01 00: 00: 00
    TRACK 11 AUDIO
    TITLE I\'ll Be Loving You
    PERFORMER Rick Derringer
    INDEX 00 03: 57: 38
    FILE 11 - I\'ll Be Loving You.wav WAVE
    INDEX 01 00: 00: 00

    -----------------------
    DON\'T MODIFY THIS FILE
    -----------------------
    PERFORMER: auCDtect Task Manager, ver. 1.6.0 RC1 build 1.6.0.1
    Copyright (c) 2008-2010 y-soft. All rights reserved
    http://y-soft.org
    ANALYZER: auCDtect: CD records authenticity detector, version 0.8.2
    Copyright (c) 2004 Oleg Berngardt. All rights reserved.
    Copyright (c) 2004 Alexander Djourik. All rights reserved.
    FILE: 11 - I\'ll Be Loving You.flac
    Size: 53189052 Hash: F38A0EAF2D69538A93DF386002979C84 Accuracy: -m0
    Conclusion: CDDA 100%
    Signature: 849D6A7A77862CF763EA61E263EDEC257F9C074C
    FILE: 10 - I\'m Doing Fine.flac
    Size: 30077576 Hash: 055FAAA7F2F4F60FBDF1340BF8B246AB Accuracy: -m0
    Conclusion: CDDA 100%
    Signature: 29930DC5BB35202EA513B90E699B4CC93D2D3540
    FILE: 09 - I\'m In Love.flac
    Size: 20957593 Hash: 5F906CBFB46F11DF132D298630EAF23C Accuracy: -m0
    Conclusion: CDDA 100%
    Signature: C23D413EB1BC73EAD10716F35047E247F1CEA831
    FILE: 08 - Tough On Me, Tough Oh You.flac
    Size: 30304813 Hash: 5A7010F49822C99A711D40669CD96EC6 Accuracy: -m0
    Conclusion: CDDA 100%
    Signature: 4DD4C75DC23F663EDC8E25C4DA2ECDA82440624F
    FILE: 07 - Wrong Side Of Paradise.flac
    Size: 28822188 Hash: 3E98C5D24B68FD89450E1E989D460E34 Accuracy: -m0
    Conclusion: CDDA 100%
    Signature: 9E75A50E22C5775B9E1C15BBC44BCAF029314D62
    FILE: 06 - Too Sorry.flac
    Size: 17385887 Hash: EE34DAA7153A824FA64808AA74F36A91 Accuracy: -m0
    Conclusion: CDDA 99%
    Signature: B84527A46B956480B763B9AD037FC5E8D275BDE0
    FILE: 05 - Talk To Me.flac
    Size: 41596399 Hash: 8807CF1FEA82DD6EEC339624905DE42F Accuracy: -m0
    Conclusion: CDDA 100%
    Signature: 0E41EBA0F6CF85E02864A1366428F801C6329972
    FILE: 04 - Big Time Love.flac
    Size: 35543272 Hash: CF06193F831199E03C304F015407D757 Accuracy: -m0
    Conclusion: CDDA 100%
    Signature: B5F303889E035B3DF80B1425A555E287D7319967
    FILE: 03 - Who Do You Love .flac
    Size: 39355422 Hash: 80C249E96A4DA0A39195FABBEF800DA8 Accuracy: -m0
    Conclusion: CDDA 100%
    Signature: 03CDE397C589894CBB53FF633B40F3F49A1D1CE7
    FILE: 02 - Wound Up Tight.flac
    Size: 35213552 Hash: 13EC88E32F7D22E88C14A38275D22960 Accuracy: -m0
    Conclusion: CDDA 100%
    Signature: 687615E7B9BD973D1414FEC266A5E4A34AC11E82
    FILE: 01 - I\'m Set On You.flac
    Size: 41798028 Hash: E2596EEF20D97D7DD266DD8C45E13F0B Accuracy: -m0
    Conclusion: CDDA 100%
    Signature: 18F2350106B362E1F0054DA580D58443D95E8FB9
    Исполнитель на NNM/Discogs
    YouTubeYouTubeYouTube Время раздачи: C 18: 00 до 20: 00 ВС. 10.00 до 20.00 (до появления первых 3-5 скачавших)


    Поглощение/вытеснение
    Только с согласия релизера

    SoulEater

    Rick Derringer - Tend The Fire (1996) [FLAC|Lossless|tracks + .cue] <Blues Rock, Electric Blues>
    загрузка...
    Рейтинг →
     (голосов: 1, оценка 3/5, голосовать можно 1 раз )

    Другие торренты по теме:

  • Rick Derringer - Back To The Blues (1993) [FLAC|Lossless|tracks + .cue] <Blues Rock>


    • Комментарии (0):

      Информация

      Информация

        Посетители, находящиеся в группе Гости, не могут оставлять комментарии в данной новости.

        ↓ Меню




        ↓ Опрос

        Вы добавили сайт в закладки?
        Да
        Нет


        Top 10 за месяц (Музыка)