.
Авторизация | Регистрация
Хочешь лучшие торренты? Добавь свой email!
Добавить

Торрент скачать бесплатно

» » Paul Anka - The Real... Paul Anka (2014) 3CD [FLAC|Lossless|tracks + .cue] <Pop> торрент скачать бесплатно




    Paul Anka - The Real... Paul Anka (2014) 3CD [FLAC|Lossless|tracks + .cue] <Pop> торрент скачать бесплатно

    Опубликовал: Админ | Дата: 14-04-2017, 05:00 | Просмотров: 0

    Жанр: Pop
    Издание: Sony Music - 88843097222
    Продолжительность: 02: 00: 27
    Кодек: FLAC
    Битрейт: Lossless
    Тип рипа: tracks + .cue

    Треклист

    Disc 1
    1. Diana
    2. Love Me Warm and Tender
    3. Put Your Head on My Shoulder
    4. Cinderella
    5. Lonely Boy
    6. I Love You, Baby
    7. Crazy Love
    8. Dance On Little Girl
    9. Love Land
    10. A Steel Guitar and a Glass of Wine
    11. Adam and Eve
    12. You Are My Destiny
    13. All I Have to Do Is Dream
    14. (I\'m Watching) Every Little Move You Make
    15. Crying In the Wind
    16. Don\'t Ever Leave Me
    Прoдолжительность: 00: 36: 45

    Exact Audio Copy V1.3 from 2. September 2016
    EAC extraction logfile from 10. April 2017, 17: 31
    Paul Anka/The Real... Paul Anka Disc 1
    Used drive : TSSTcorpCDDVDW SE-208AB Adapter: 2 ID: 0
    Read mode : Secure
    Utilize accurate stream : Yes
    Defeat audio cache : Yes
    Make use of C2 pointers : No
    Read offset correction : 6
    Overread into Lead-In and Lead-Out : No
    Fill up missing offset samples with silence : Yes
    Delete leading and trailing silent blocks : No
    Null samples used in CRC calculations : Yes
    Used interface : Installed external ASPI interface
    Gap handling : Appended to previous track
    Used output format : User Defined Encoder
    Selected bitrate : 768 kBit/s
    Quality : High
    Add ID3 tag : No
    Command line compressor : C: Program Files (x86)Exact Audio CopyFlacflac.exe
    Additional command line options : -8 -V -T ARTIST=%artist% -T TITLE=%title% -T ALBUM=%albumtitle% -T DATE=%year% -T TRACKNUMBER=%tracknr% -T GENRE=%genre% -T COMMENT=%comment% -T BAND=%albuminterpret% -T ALBUMARTIST=%albuminterpret% -T COMPOSER=%composer% %haslyrics%--tag-from-file=LYRICS=%lyricsfile%%haslyrics% -T DISCNUMBER=%cdnumber% -T TOTALDISCS=%totalcds% -T TOTALTRACKS=%numtracks% %hascover%--picture=%coverfile%%hascover% %source% -o %dest%
    TOC of the extracted CD
    Track | Start | Length | Start sector | End sector
    ---------------------------------------------------------
    1 | 0: 00.00 | 2: 20.06 | 0 | 10505
    2 | 2: 20.06 | 2: 20.13 | 10506 | 21018
    3 | 4: 40.19 | 2: 35.42 | 21019 | 32685
    4 | 7: 15.61 | 2: 04.45 | 32686 | 42030
    5 | 9: 20.31 | 2: 31.44 | 42031 | 53399
    6 | 11: 52.00 | 2: 22.41 | 53400 | 64090
    7 | 14: 14.41 | 2: 26.72 | 64091 | 75112
    8 | 16: 41.38 | 1: 55.35 | 75113 | 83772
    9 | 18: 36.73 | 2: 17.21 | 83773 | 94068
    10 | 20: 54.19 | 2: 15.00 | 94069 | 104193
    11 | 23: 09.19 | 2: 12.25 | 104194 | 114118
    12 | 25: 21.44 | 2: 28.42 | 114119 | 125260
    13 | 27: 50.11 | 2: 06.66 | 125261 | 134776
    14 | 29: 57.02 | 2: 03.07 | 134777 | 144008
    15 | 32: 00.09 | 2: 23.54 | 144009 | 154787
    16 | 34: 23.63 | 2: 21.67 | 154788 | 165429
    Track 1
    Filename C: Program Files (x86)Exact Audio CopyFlac1. Diana.wav
    Pre-gap length 0: 00: 02.00
    Peak level 78.8 %
    Extraction speed 0.7 X
    Track quality 99.9 %
    Test CRC 93D483FE
    Copy CRC 93D483FE
    Accurately ripped (confidence 5) 2D003A13 (AR v2)
    Copy OK
    Track 2
    Filename C: Program Files (x86)Exact Audio CopyFlac2. Love Me Warm And Tender.wav
    Pre-gap length 0: 00: 01.51
    Peak level 76.4 %
    Extraction speed 1.0 X
    Track quality 100.0 %
    Test CRC BA199157
    Copy CRC BA199157
    Accurately ripped (confidence 5) EB5644FD (AR v2)
    Copy OK
    Track 3
    Filename C: Program Files (x86)Exact Audio CopyFlac3. Put Your Head On My Shoulder.wav
    Pre-gap length 0: 00: 01.51
    Peak level 76.1 %
    Extraction speed 1.1 X
    Track quality 100.0 %
    Test CRC 54CC45EF
    Copy CRC 54CC45EF
    Accurately ripped (confidence 5) B997180C (AR v2)
    Copy OK
    Track 4
    Filename C: Program Files (x86)Exact Audio CopyFlac4. Cinderella.wav
    Pre-gap length 0: 00: 01.51
    Peak level 76.4 %
    Extraction speed 1.1 X
    Track quality 100.0 %
    Test CRC 49D501C7
    Copy CRC 49D501C7
    Accurately ripped (confidence 5) C2810DF2 (AR v2)
    Copy OK
    Track 5
    Filename C: Program Files (x86)Exact Audio CopyFlac5. Lonely Boy.wav
    Pre-gap length 0: 00: 01.51
    Peak level 76.4 %
    Extraction speed 1.2 X
    Track quality 100.0 %
    Test CRC 7985E897
    Copy CRC 7985E897
    Accurately ripped (confidence 5) 0B9BCDAD (AR v2)
    Copy OK
    Track 6
    Filename C: Program Files (x86)Exact Audio CopyFlac6. I Love You, Baby.wav
    Pre-gap length 0: 00: 01.51
    Peak level 76.4 %
    Extraction speed 1.2 X
    Track quality 100.0 %
    Test CRC 72C4E6B6
    Copy CRC 72C4E6B6
    Accurately ripped (confidence 5) D77573E3 (AR v2)
    Copy OK
    Track 7
    Filename C: Program Files (x86)Exact Audio CopyFlac7. Crazy Love.wav
    Pre-gap length 0: 00: 01.51
    Peak level 76.4 %
    Extraction speed 1.3 X
    Track quality 100.0 %
    Test CRC 7B5B1681
    Copy CRC 7B5B1681
    Accurately ripped (confidence 5) A4741645 (AR v2)
    Copy OK
    Track 8
    Filename C: Program Files (x86)Exact Audio CopyFlac8. Dance On Little Girl.wav
    Pre-gap length 0: 00: 01.51
    Peak level 59.5 %
    Extraction speed 1.3 X
    Track quality 100.0 %
    Test CRC 4041237B
    Copy CRC 4041237B
    Accurately ripped (confidence 5) CC83B556 (AR v2)
    Copy OK
    Track 9
    Filename C: Program Files (x86)Exact Audio CopyFlac9. Love Land.wav
    Pre-gap length 0: 00: 01.51
    Peak level 78.8 %
    Extraction speed 1.4 X
    Track quality 100.0 %
    Test CRC 0EE7230E
    Copy CRC 0EE7230E
    Accurately ripped (confidence 5) AFCD1B6D (AR v2)
    Copy OK
    Track 10
    Filename C: Program Files (x86)Exact Audio CopyFlac10. A Steel Guitar And A Glass Of Wine.wav
    Pre-gap length 0: 00: 01.51
    Peak level 76.4 %
    Extraction speed 1.4 X
    Track quality 100.0 %
    Test CRC D15D158F
    Copy CRC D15D158F
    Accurately ripped (confidence 5) 5C488FCF (AR v2)
    Copy OK
    Track 11
    Filename C: Program Files (x86)Exact Audio CopyFlac11. Adam And Eve.wav
    Pre-gap length 0: 00: 01.51
    Peak level 76.4 %
    Extraction speed 1.5 X
    Track quality 100.0 %
    Test CRC 11136CFF
    Copy CRC 11136CFF
    Accurately ripped (confidence 5) EC76A394 (AR v2)
    Copy OK
    Track 12
    Filename C: Program Files (x86)Exact Audio CopyFlac12. You Are My Destiny.wav
    Pre-gap length 0: 00: 01.51
    Peak level 76.1 %
    Extraction speed 1.5 X
    Track quality 100.0 %
    Test CRC F816F377
    Copy CRC F816F377
    Accurately ripped (confidence 5) D62524C4 (AR v2)
    Copy OK
    Track 13
    Filename C: Program Files (x86)Exact Audio CopyFlac13. All I Have To Do Is Dream.wav
    Pre-gap length 0: 00: 01.51
    Peak level 77.6 %
    Extraction speed 1.5 X
    Track quality 100.0 %
    Test CRC 2B71F51B
    Copy CRC 2B71F51B
    Accurately ripped (confidence 5) 3E482E1E (AR v2)
    Copy OK
    Track 14
    Filename C: Program Files (x86)Exact Audio CopyFlac14. (I\'m Watching) Every Little Move You Make.wav
    Pre-gap length 0: 00: 01.51
    Peak level 87.1 %
    Extraction speed 1.5 X
    Track quality 100.0 %
    Test CRC 9C9F7B80
    Copy CRC 9C9F7B80
    Accurately ripped (confidence 5) 1A563B85 (AR v2)
    Copy OK
    Track 15
    Filename C: Program Files (x86)Exact Audio CopyFlac15. Crying In The Wind.wav
    Pre-gap length 0: 00: 01.51
    Peak level 82.0 %
    Extraction speed 1.3 X
    Track quality 99.9 %
    Test CRC 5A90954E
    Copy CRC 5A90954E
    Accurately ripped (confidence 5) 707E25B3 (AR v2)
    Copy OK
    Track 16
    Filename C: Program Files (x86)Exact Audio CopyFlac16. Don\'t Ever Leave Me.wav
    Pre-gap length 0: 00: 01.51
    Peak level 95.5 %
    Extraction speed 1.7 X
    Track quality 100.0 %
    Test CRC 0B3D61C5
    Copy CRC 0B3D61C5
    Accurately ripped (confidence 5) C32BFD3F (AR v2)
    Copy OK
    All tracks accurately ripped
    No errors occurred
    End of status report
    ---- CUETools DB Plugin V2.1.6
    CTDB TOCID: cKeu9EvhrXiGrjfa8mQB6Sv3R0I- found
    Submit result: cKeu9EvhrXiGrjfa8mQB6Sv3R0I- has been confirmed
    Track | CTDB Status
    1 | (13/13) Accurately ripped
    2 | (13/13) Accurately ripped
    3 | (13/13) Accurately ripped
    4 | (13/13) Accurately ripped
    5 | (13/13) Accurately ripped
    6 | (13/13) Accurately ripped
    7 | (13/13) Accurately ripped
    8 | (13/13) Accurately ripped
    9 | (13/13) Accurately ripped
    10 | (13/13) Accurately ripped
    11 | (13/13) Accurately ripped
    12 | (13/13) Accurately ripped
    13 | (13/13) Accurately ripped
    14 | (13/13) Accurately ripped
    15 | (13/13) Accurately ripped
    16 | (12/13) Accurately ripped
    ==== Log checksum A07E956B2B296D917C963F55C7D7F527E7211076B4115CC95C2DD3974ADFA1DC ====

    -----------------------
    DON\'T MODIFY THIS FILE
    -----------------------
    PERFORMER: auCDtect Task Manager, ver. 1.5.1RC4 build 1.5.1.5
    Copyright (c) 2008-2010 y-soft. All rights reserved
    http://y-soft.org
    ANALYZER: auCDtect: CD records authenticity detector, version 0.8.2
    Copyright (c) 2004 Oleg Berngardt. All rights reserved.
    Copyright (c) 2004 Alexander Djourik. All rights reserved.
    FILE: 16. Don\'t Ever Leave Me.flac
    Size: 15209004 Hash: E4C6384E737F2CAF218FC149B0A9866E Accuracy: -m0
    Conclusion: CDDA 100%
    Signature: 7A48F5A670F8857034C288C62CED0579E6A3173C
    FILE: 15. Crying In The Wind.flac
    Size: 15095765 Hash: F8A0D8D23BA3D806DA2C516F16C9C0E9 Accuracy: -m0
    Conclusion: CDDA 100%
    Signature: 92025D50CA4BBAEEF62D06D60E04A98E4920F1A3
    FILE: 14. (I\'m Watching) Every Little Move You Make.flac
    Size: 12318339 Hash: DB750846FCC185B45329BCD8B79D3E06 Accuracy: -m0
    Conclusion: CDDA 100%
    Signature: 3848664ABA06A5A40571E761E58539095662506B
    FILE: 13. All I Have To Do Is Dream.flac
    Size: 13458428 Hash: EF346D6F61DFD05791BB7A407C61A0EC Accuracy: -m0
    Conclusion: CDDA 100%
    Signature: 305CB840DEC9D9473127BFC63B856179B5A6887C
    FILE: 12. You Are My Destiny.flac
    Size: 16621539 Hash: 4C70A467FB2AFDFA72669FF4429505F6 Accuracy: -m0
    Conclusion: CDDA 100%
    Signature: 41B80F335AC6BA4962B665C2CF5FBEFCAE25E799
    FILE: 11. Adam And Eve.flac
    Size: 15706606 Hash: C25A45D1E199A39CE4AAED8B6C7A5A44 Accuracy: -m0
    Conclusion: CDDA 100%
    Signature: EB6F76572A56713CFC84DA787E77AC285533A7D3
    FILE: 10. A Steel Guitar And A Glass Of Wine.flac
    Size: 14972224 Hash: F12A2660190D4BE756C7F22924558358 Accuracy: -m0
    Conclusion: CDDA 100%
    Signature: 44AB8BAF7071681366B02E680E9D3931B145BEBF
    FILE: 09. Love Land.flac
    Size: 14678531 Hash: DAECA0BF4075FD2027D0BBB83CB32CB0 Accuracy: -m0
    Conclusion: CDDA 100%
    Signature: BAD2A2FB741D5B2AB40F4742B2832B97FC7C09FD
    FILE: 08. Dance On Little Girl.flac
    Size: 12382841 Hash: C475540F308D75CD181D6D84851BD0C3 Accuracy: -m0
    Conclusion: CDDA 100%
    Signature: 6CF381EB499F678DDCD12E249D185868CBF46762
    FILE: 07. Crazy Love.flac
    Size: 16220612 Hash: 2CDF37B79F1998135FFB60EBD5C5714D Accuracy: -m0
    Conclusion: CDDA 100%
    Signature: 7B9CEA2E92985A759BDDD9C759D19AB1C8C79D6F
    FILE: 06. I Love You, Baby.flac
    Size: 15812519 Hash: C21B1D69C9B4F4298114545F9611A439 Accuracy: -m0
    Conclusion: CDDA 100%
    Signature: 276ACCDE0120E9249455A1B2BF12D02A56D63B1C
    FILE: 05. Lonely Boy.flac
    Size: 16722420 Hash: 7E15BFEB85B254A0F900DEEFE8ECA61F Accuracy: -m0
    Conclusion: CDDA 100%
    Signature: B4B167CBD84A360514AF249B8FAAB47AA9DCBFB3
    FILE: 04. Cinderella.flac
    Size: 14716103 Hash: CA79DBE96C3469022423CA326AA3205C Accuracy: -m0
    Conclusion: CDDA 100%
    Signature: 2BAF0AFCBB8FB8F1DE879280A3520316B724AA29
    FILE: 03. Put Your Head On My Shoulder.flac
    Size: 16711425 Hash: 427CD9E000867E7018443324970700B0 Accuracy: -m0
    Conclusion: CDDA 100%
    Signature: 2DA4922554C54E7498E0BAA3B607E6740A072C4B
    FILE: 02. Love Me Warm And Tender.flac
    Size: 16067683 Hash: D78A9B0DD6EDC2CC795BDCF30819B971 Accuracy: -m0
    Conclusion: CDDA 100%
    Signature: 3F8DEACE926FE75A1ACF707BA5C648397A3D4D9E
    FILE: 01. Diana.flac
    Size: 15810520 Hash: 35598323A6237B3C5639EB556B9B3DCA Accuracy: -m0
    Conclusion: CDDA 100%
    Signature: 502A317B08B759F06FD078DAE455C6386BE535AA


    Paul Anka - The Real... Paul Anka (2014) 3CD [FLAC|Lossless|tracks + .cue] <Pop>
    загрузка...
    Рейтинг →
     (голосов: 1, оценка 3/5, голосовать можно 1 раз )

    Другие торренты по теме:

  • Paul Carrack - The Best Of Paul Carrack (2014) Remastered [MP3|320 кб / с]<Pop Rock, Soft Rock> скачать через торрент бесплатно
  • Paul Simon - The Paul Simon Anthology (1993) Unofficial Release [APE|Lossless|image + .cue] <Folk Rock, Acoustic>
  • VA - Paul Oakenfold - Dreamstate Volume One (Mixed by Paul Oakenfold) (2017) [FLAC|Lossless|WEB-DL|tracks] <Trance>
  • VA - Paul Oakenfold - Dreamstate Volume One (Mixed by Paul Oakenfold) (2017) [MP3|320 Kbps] <Trance, Progressive Trance, Uplifting Trance>
  • Paul Haslinger & VA - Адреналин / Crank (Original Score + Original Soundtrack) (2006) [MP3|320 кб / с]<Soundtrack>
  • Paul Desmond Quartet With Jim Hall - First Place Again (2012) [FLAC|Lossless]<Jazz, Cool>
  • VA - Paul Van Dyk Presents: Evil 13 (2014) [MP3|320 кб / с]<Trance>
  • VA - Paul Oakenfold - DJ Box - November (2014) [MP3|320 кб / с]<Trance>


    • Комментарии (0):

      Информация

      Информация

        Посетители, находящиеся в группе Гости, не могут оставлять комментарии в данной новости.

        ↓ Меню




        ↓ Опрос

        Вы добавили сайт в закладки?
        Да
        Нет


        Top 10 за месяц (Музыка)

        U2 - Songs Of Experience (2017) Deluxe Edition [MP3|320 Kbps] <Classic Rock>

        (скачиваний: 10)
        Павел Пламенев - Неофициальный сборник песен (2014 - 2016) [MP3|192 кб / с] <русский рок, рок>

        (скачиваний: 9)
        George Otsuka Trio - Page 1 (1967) 2014, Nippon Columbia [FLAC|Lossless|tracks + .cue] <Post-Bop>

        (скачиваний: 9)
        Bob Seger - 23 альбома (1969 - 2014) [FLAC|WAVPack|Lossless]<Classic Rock> скачать через торрент бесплатно

        (скачиваний: 8)
        Fools Garden (Fools Garden) - 9 Альбомов, 12 Синглов (1993 - 2015) [MP3|320 кб / с]<Rock, Pop Rock>

        (скачиваний: 8)
        VA - Festival Alfa Future People (2016) [MP3|320 Kbps] <Trance, House, Club>

        (скачиваний: 6)
        Марина Девятова - В день рождения с любовью... (Юбилейный концерт) (2013) WEBRip [H.264 / 720p-LQ]скачать через торрент бесплатно

        (скачиваний: 6)
        FREE FLOW FLAVA - Complete Collection (2014-2016) [MP3|320 Kbps] <Восточный фольк, Hip-hop>

        (скачиваний: 6)
        Amadeus Veberzinke / Амадеус Веберзинке - J. S. Bach / И. С. Бах: Mass For Organ / Органная месса (1990) [FLAC 2.0 24 / 96|image+.cue (Vinyl-Rip)] <Classical, Organ> скачать через торрент бесплатно

        (скачиваний: 6)
        Cigarettes After Sex - Cigarettes After Sex (2017) [MP3|320 Kbps] <Indie Pop, Dream-Pop>

        (скачиваний: 6)