.
Авторизация | Регистрация
Хочешь лучшие торренты? Добавь свой email!
Добавить

Торрент скачать бесплатно

» » Woody Shaw - Field Recordings Of A Jazz Master (1975, 1980,1981) 2012, International Trumpet Guild [FLAC|Lossless|tracks + .cue] <Post Bop, Free Improvisation> торрент скачать бесплатно




    Woody Shaw - Field Recordings Of A Jazz Master (1975, 1980,1981) 2012, International Trumpet Guild [FLAC|Lossless|tracks + .cue] <Post Bop, Free Improvisation> торрент скачать бесплатно

    Опубликовал: Админ | Дата: 19-03-2017, 05:01 | Просмотров: 0

    Жанр: Post Bop, Free Improvisation
    Издание: International Trumpet Guild - ITG CD 21
    Продолжительность: 01: 06: 24
    Кодек: FLAC (tracks+.cue)
    Битрейт: Lossless
    Источник (релизер): redacted
    Страна-производитель диска: USA
    Наличие сканов в содержимом раздачи: да

    Треклист

    01.To Kill a Brick 11: 13
    02.Joshua C 18: 24
    03.We\'ll Be Together Again 10: 40
    04.OPEC 21: 27
    05.Woody Shaw\'s solo on the chords to Giant Steps 04: 41

    Exact Audio Copy V1.0 beta 3 from 29. August 2011
    EAC extraction logfile from 24. March 2013, 0: 25
    Woody Shaw/Field Recordings Of A Jazz Master
    Used drive : hp CDDVDW TS-L633N Adapter: 0 ID: 0
    Read mode : Secure
    Utilize accurate stream : Yes
    Defeat audio cache : Yes
    Make use of C2 pointers : No
    Read offset correction : 6
    Overread into Lead-In and Lead-Out : No
    Fill up missing offset samples with silence : Yes
    Delete leading and trailing silent blocks : No
    Null samples used in CRC calculations : Yes
    Used interface : Native Win32 interface for Win NT 2000
    Gap handling : Appended to previous track
    Used output format : User Defined Encoder
    Selected bitrate : 1024 kBit/s
    Quality : High
    Add ID3 tag : No
    Command line compressor : C: Program Files (x86)Exact Audio CopyFLACFLAC.EXE
    Additional command line options : -8 -V -T ARTIST=%artist% -T TITLE=%title% -T ALBUM=%albumtitle% -T DATE=%year% -T TRACKNUMBER=%tracknr% -T TOTALTRACKS=%numtracks% -T GENRE=%genre% -T ALBUMARTIST=%albumartist% -T ALBUM ARTIST=%albumartist% -T COMMENT=EAC Secure Mode, Test Copy, AccurateRip, FLAC -8 %source%
    TOC of the extracted CD
    Track | Start | Length | Start sector | End sector
    ---------------------------------------------------------
    1 | 0: 00.00 | 11: 13.00 | 0 | 50474
    2 | 11: 13.00 | 18: 24.00 | 50475 | 133274
    3 | 29: 37.00 | 10: 39.48 | 133275 | 181247
    4 | 40: 16.48 | 21: 26.09 | 181248 | 277706
    5 | 61: 42.57 | 4: 40.74 | 277707 | 298780
    Track 1
    Filename C: EAC Rip1 - To Kill A Brick.wav
    Pre-gap length 0: 00: 02.00
    Peak level 98.8 %
    Extraction speed 2.6 X
    Track quality 100.0 %
    Test CRC C2E6D7EF
    Copy CRC C2E6D7EF
    Track not present in AccurateRip database
    Copy OK
    Track 2
    Filename C: EAC Rip2 - Joshua C.wav
    Peak level 95.4 %
    Extraction speed 3.4 X
    Track quality 100.0 %
    Test CRC FCA28330
    Copy CRC FCA28330
    Track not present in AccurateRip database
    Copy OK
    Track 3
    Filename C: EAC Rip3 - We\'ll Be Together Again.wav
    Peak level 94.1 %
    Extraction speed 3.9 X
    Track quality 100.0 %
    Test CRC 3407EE34
    Copy CRC 3407EE34
    Track not present in AccurateRip database
    Copy OK
    Track 4
    Filename C: EAC Rip4 - OPEC.wav
    Peak level 98.8 %
    Extraction speed 4.5 X
    Track quality 100.0 %
    Test CRC 84E7212A
    Copy CRC 84E7212A
    Track not present in AccurateRip database
    Copy OK
    Track 5
    Filename C: EAC Rip5 - Giant Steps Solo.wav
    Peak level 95.5 %
    Extraction speed 4.6 X
    Track quality 100.0 %
    Test CRC 6F5BAEE6
    Copy CRC 6F5BAEE6
    Track not present in AccurateRip database
    Copy OK
    None of the tracks are present in the AccurateRip database
    No errors occurred
    End of status report
    ==== Log checksum FEC0E4E0C6B0222925CA7B31DF7C3590DEF4D6DE337AEC67D2A7B575AA09B58F ====

    REM GENRE Jazz
    REM DATE 2012
    REM DISCID 490F8F05
    REM COMMENT ExactAudioCopy v1.0b3
    PERFORMER Woody Shaw
    TITLE Field Recordings of a Jazz Master
    FILE 01 - To Kill a Brick.wav WAVE
    TRACK 01 AUDIO
    TITLE To Kill a Brick
    PERFORMER Woody Shaw
    INDEX 01 00: 00: 00
    FILE 02 - Joshua C.wav WAVE
    TRACK 02 AUDIO
    TITLE Joshua C
    PERFORMER Woody Shaw
    INDEX 01 00: 00: 00
    FILE 03 - We\'ll Be Together Again.wav WAVE
    TRACK 03 AUDIO
    TITLE We\'ll Be Together Again
    PERFORMER Woody Shaw
    INDEX 01 00: 00: 00
    FILE 04 - OPEC.wav WAVE
    TRACK 04 AUDIO
    TITLE OPEC
    PERFORMER Woody Shaw
    INDEX 01 00: 00: 00
    FILE 05 - Woody Shaw\'s solo on the chords to Giant Steps.wav WAVE
    TRACK 05 AUDIO
    TITLE Woody Shaw\'s solo on the chords to Giant Steps
    PERFORMER Woody Shaw
    INDEX 01 00: 00: 00

    -----------------------
    DON\'T MODIFY THIS FILE
    -----------------------
    PERFORMER: auCDtect Task Manager, ver. 1.6.0 RC1 build 1.6.0.1
    Copyright (c) 2008-2010 y-soft. All rights reserved
    http://y-soft.org
    ANALYZER: auCDtect: CD records authenticity detector, version 0.8.2
    Copyright (c) 2004 Oleg Berngardt. All rights reserved.
    Copyright (c) 2004 Alexander Djourik. All rights reserved.
    FILE: 05 - Woody Shaw\'s solo on the chords to Giant Steps.flac
    Size: 30575217 Hash: 2B1FFC683ED19C5319023C3F9F80C183 Accuracy: -m0
    Conclusion: ???
    Signature: 697097DCA0242FB34F14151CD6CBF58B1E5FF02B
    FILE: 04 - OPEC.flac
    Size: 157567240 Hash: CE37A814C6683BAD231A0697205C980E Accuracy: -m0
    Conclusion: CDDA 100%
    Signature: E5B0C41A987D1416A3C0F63229A907BECE4025B9
    FILE: 03 - We\'ll Be Together Again.flac
    Size: 56741748 Hash: 3B94EC807720C72D10706321461A1E83 Accuracy: -m0
    Conclusion: CDDA 43%
    Signature: 74E8BFC1FF280FF1F05C6644D25B5932D413AC62
    FILE: 02 - Joshua C.flac
    Size: 115424745 Hash: 93AC5391795E523ADC2E52B452F4FA25 Accuracy: -m0
    Conclusion: MPEG 89%
    Signature: F21C484E1127793467291F26FC77D1AC66C1C64C
    FILE: 01 - To Kill a Brick.flac
    Size: 76380184 Hash: DB9136328ADAF86069AAA1FEE158ECE4 Accuracy: -m0
    Conclusion: MPEG 100%
    Signature: DCBBF88E3BB357BB35B6ABEB5584DEF8590935C1




    Скриншоты для ознакомления




    Woody Shaw - Field Recordings Of A Jazz Master (1975, 1980,1981) 2012, International Trumpet Guild [FLAC|Lossless|tracks + .cue] <Post Bop, Free Improvisation>
    загрузка...
    Рейтинг →
     (голосов: 1, оценка 4/5, голосовать можно 1 раз )

    Другие торренты по теме:

  • Woody Shaw - With Tone Jansa Quartet (1985) Remaster, 2015, Solid Records[FLAC|Lossless|tracks + .cue] <Hard Bop, Post-Bop>
  • Tone Jansa Quartet featuring Woody Shaw - Dr. Chi (1986) Remaster, 2015, Solid Records[FLAC|Lossless|tracks + .cue] <Hard Bop, Post-Bop>


    • Комментарии (0):

      Информация

      Информация

        Посетители, находящиеся в группе Гости, не могут оставлять комментарии в данной новости.

        ↓ Меню




        ↓ Опрос

        Вы добавили сайт в закладки?
        Да
        Нет


        Top 10 за месяц (Музыка)