.
Авторизация | Регистрация
Хочешь лучшие торренты? Добавь свой email!
Добавить

Торрент скачать бесплатно

» » Звездные войны: Войны клонов / Star Wars: The Clone Wars (2012) (Сезон 5, 20 серий из 20) BDRip [H.264 / 1080p-LQ] (Невафильм) торрент скачать бесплатно




    Звездные войны: Войны клонов / Star Wars: The Clone Wars (2012) (Сезон 5, 20 серий из 20) BDRip [H.264 / 1080p-LQ] (Невафильм) торрент скачать бесплатно

    Опубликовал: Админ | Дата: 18-01-2016, 04:02 | Просмотров: 79

    Производство: США, Lucasfilm Animation Singapore, Lucasfilm Ltd., CGCG
    Жанр: Компьютерная анимация, Детский, Приключения, Фантастика
    Режиссер: Dave Filoni/Дэйв Филони, Steward Lee/Стюарт Ли, Kyle Dunlevy /
    Кайл Данливи и др.
    Роли озвучивают: Tom Kane/Том Кэйн, Dee Bradley Baker/Ди Брэдли Бейкер, Matt Lanter/Мэтт Лантер, James Arnold Taylor/Джеймс Арнольд Тейлор, Corey Burton/Кори Бертон, Matthew Wood/Мэттью Вуд, Ashley Eckstein/Эшли Экштейн, Terrence T.C. Carson/Терренс Т.К. О таком странном сюжете не догадывалась даже Земфира. Карсон, Catherine Taber/Катрин Табер, Ian Abercrombie/Йен Эберкромби, Anthony Daniels/Энтони Дэниелс и др.

    Описание

    Дарт Мол и Саваж Опресс сеют смерть и разрушение, занимаясь разбоем на Внешнем Кольце. Избавив брата от отчаяния и забвения, Саваж со своим братом убивают и мародёрствуют всюду. Прикольно все это наверно придумал Уил Смит потратив достаточно времени. Снедаемый бешенством и местью, они прибывают в поиске смысла в их новом альянсе; тогда как слухи о их жестоких набегах распространяется по галактике. Дарт Мол явно не горит желанием примкнуть ни к Сепаратистам в борьбе против Республики ни к джедаям, но намерен выступить в качестве третьей силы в галактическом конфликте.

    Продолжительность: Серия по ~00: 22: 00
    Качество видео: BDRip 1080p-LQ
    Перевод: Дублированный
    Видео: AVC/H.264, 1920х816, 23, 976 fps, ~5483 kbps
    Аудио #1: AC3, 2 ch, 192 kbps, CBR (Русский - Невафильм)
    Аудио #2: DTS, 5.1 ch, 1509 kbps, CBR (Английский)
    Семпл: Скачать
    Код:

    Общее
    Уникальный идентификатор : 248335206346034244130627047529388601594 (0xBAD39EFAD27321AFB2AE563181C670FA)
    Полное имя : H:Star WarsStar Wars The Clone WarsStar.Wars.The.Clone.Wars.-.S05.BD-Rip.1080p.MPEG-4.AVC.Russian.AC3-2.0.English.DTS-5.1star.wars.the.clone.wars.s05e01.1080p.x264.Nevafilm.Russian.AC3-2.0.English.DTS-5.1.mkv
    Формат : Matroska
    Версия формата : Version 4/Version 2
    Размер файла : 1, 12 Гбайт
    Продолжительность : 22 м.
    Режим общего битрейта : Переменный
    Общий поток : 7186 Кбит/сек
    Дата кодирования : UTC 2016-01-15 23:52:45
    Программа кодирования : mkvmerge v8.8.0 (\'Wind at my back\') 64bit
    Библиотека кодирования : libebml v1.3.3 + libmatroska v1.4.4
    Видео
    Идентификатор : 1
    Формат : AVC
    Формат/Информация : Advanced Video Codec
    Профиль формата : High@L4
    Параметр CABAC формата : Да
    Параметр ReFrames формата : 4 кадра
    Идентификатор кодека : V_MPEG4/ISO/AVC
    Продолжительность : 22 м.
    Вид битрейта : Переменный
    Битрейт : 5483 Кбит/сек
    Максимальный битрейт : 40, 0 Мбит/сек
    Ширина : 1920 пикселей
    Высота : 816 пикселей
    Соотношение сторон : 2, 35:1
    Режим частоты кадров : Постоянный
    Частота кадров : 23, 976 (24000/1001) кадра/сек
    Цветовое пространство : YUV
    Субдискретизация насыщенности : 4:2:0
    Битовая глубина : 8 бит
    Тип развёртки : Прогрессивная
    Бит/(Пиксели*Кадры) : 0.146
    Размер потока : 876 Мбайт (76%)
    Default : Да
    Forced : Нет
    Аудио #1
    Идентификатор : 2
    Формат : AC-3
    Формат/Информация : Audio Coding 3
    Расширение режима : CM (complete main)
    Параметр Endianness формата : Big
    Идентификатор кодека : A_AC3
    Продолжительность : 22 м.
    Вид битрейта : Постоянный
    Битрейт : 192 Кбит/сек
    Каналы : 2 канала
    Расположение каналов : Front: L R
    Частота : 44, 1 КГц
    Частота кадров : 28, 711 кадров/сек (1536 spf)
    Метод сжатия : С потерями
    Задержка видео : 1 с. 82 мс.
    Размер потока : 30, 6 Мбайт (3%)
    Язык : Russian
    Default : Да
    Forced : Да
    Аудио #2
    Идентификатор : 3
    Формат : DTS
    Формат/Информация : Digital Theater Systems
    Режим : 16
    Параметр Endianness формата : Big
    Идентификатор кодека : A_DTS
    Продолжительность : 22 м.
    Вид битрейта : Постоянный
    Битрейт : 1509 Кбит/сек
    Каналы : 6 каналов
    Расположение каналов : Front: L C R, Side: L R, LFE
    Частота : 48, 0 КГц
    Частота кадров : 93, 750 кадра/сек (512 spf)
    Битовая глубина : 24 бит
    Метод сжатия : С потерями
    Размер потока : 241 Мбайт (21%)
    Язык : English
    Default : Нет
    Forced : Нет


    Скриншоты для ознакомления




    Онлайн видео Звездные войны: Войны клонов



    Звездные войны: Войны клонов/Star Wars: The Clone Wars (2012) (Сезон 5, 20 серий из 20) BDRip [H.264/1080p-LQ] (Невафильм)
    загрузка...
    Рейтинг →
     (голосов: 1, оценка 5/5, голосовать можно 1 раз )

    Другие торренты по теме:

  • Звездные войны: Силы судьбы / Star Wars: Forces of Destiny (2017) WEB-DLRip [H.264 / 1080p] (Сезон 1, серии 16 из 16) LostFilm
  • John Williams - Звездные войны: Последние джедаи / Star Wars: The Last Jedi / Soundtrack (2017) [FLAC|Lossless|WEB-DL|tracks] <Soundtrack, Score>
  • Звездные войны: Войны клонов / Star Wars: The Clone Wars (2014) (Сезон 6, 13 серий из 13) BDRip [H.264 / 1080p-LQ] (Невафильм)
  • Звездные войны: Эпизод 4 - Новая надежда / Star Wars: Episode IV - A New Hope (1977) Despecialized Edition (телеканал орт, Гланс и Королева) скачать через торрент бесплатно
  • Звездные войны: Эпизод 7 – Пробуждение силы / Star Wars: Episode VII - The Force Awakens (2015) WEBRip [1080p] [Тизер]
  • Звездные войны: Сага / Star Wars: The Complete Saga (1977-2005) BDRip [1080p] [Антология] скачать через торрент бесплатно
  • Звездные войны: Эпизод 3 - Месть Ситхов / Star Wars: Episode III - Revenge of the Sith (2005) BDRip [1080p] [hand made 60fps] скачать через торрент бесплатно
  • Звездные войны: Эпизод 1 - Скрытая угроза / Star Wars: Episode I - The Phantom Menace (1999) BDRip [1080p] [hand made 60fps] скачать через торрент бесплатно


    • Комментарии (0):

      Информация

      Информация

        Посетители, находящиеся в группе Гости, не могут оставлять комментарии в данной новости.

        ↓ Меню




        ↓ Опрос

        Вы добавили сайт в закладки?
        Да
        Нет


        Top 10 за месяц (Мультфильмы)