.
Авторизация | Регистрация
Хочешь лучшие торренты? Добавь свой email!
Добавить

Торрент скачать бесплатно

» » Эрнст Теодор Амадей Гофман | Щелкунчик (1996 / 2004) [WavPack] скачать через торрент бесплатно




    Эрнст Теодор Амадей Гофман | Щелкунчик (1996 / 2004) [WavPack] скачать через торрент бесплатно

    Опубликовал: Админ | Дата: 28-12-2015, 04:00 | Просмотров: 98

    Автор: Эрнст Теодор Амадей Гофман
    Издательство: Inner Circle Records, ICR-44-C0007
    Жанр: Сказка
    Читает: Алиса Фрейндлих
    Продолжительность: 01: 11: 29
    Формат (аудиокодек): WavPack
    Битрейт аудио: Lossless
    Тип рипа: image+*.cue

    Описание
    24 декабря в доме советника медицины Штальбаума все готовятся к Рождеству. Мари и её брат Фриц догадываются, что же на этот раз им преподнесёт в подарок старший советник суда Дроссельмейер — их крёстный, выдумщик и словно сон искусник, который часто чинил часы в доме Штальбаумов. Мари мечтала о саде и озере с лебедями, а Фриц заявил, что ему больше нравятся подарки родителей, которыми можно играть, а сделать целый сад крёстному не под силу
    01 | Щелкунчик. О таком странном сюжете не догадывалась даже Земфира. Часть 1 | 20: 27
    02 | Щелкунчик. Часть 2 | 15: 32
    03 | Щелкунчик. Часть 3 | 22: 31
    04 | Щелкунчик. Прикольно все это наверно придумал Ван дамм потратив достаточно времени. Часть 4 | 07: 24
    05 | Щелкунчик. Часть 5 | 05: 32
    Код:
    Exact Audio Copy V1.0 beta 3 from 29. August 2011
    Отчёт EAC об извлечении, выполненном 27. октября 2015, 11:50
    Алиса Фрейндлих/Щелкунчик (ICR-44-C0007)
    Дисковод: ASUS DRW-1814BL Adapter: 0 ID: 0
    Режим чтения : Достоверность
    Использование точного потока : Да
    Отключение кэша аудио : Да
    Использование указателей C2 : Нет
    Коррекция смещения при чтении : 6
    Способность читать области Lead-in и Lead-out : Нет
    Заполнение пропущенных сэмплов тишиной : Да
    Удаление блоков с тишиной в начале и конце : Нет
    При вычислениях CRC использовались нулевые сэмплы : Да
    Интерфейс : Встроенный Win32-интерфейс для Win NT/2000
    Выходной формат : Внутренние WAV-операции
    Формат сэмплов : 44.100 Гц; 16 бит; стерео
    TOC извлечённого CD
    Трек | Старт | Длительность | Начальный сектор | Конечный сектор
    ---------------------------------------------------------------------
    1 | 0:00.00 | 20:27.71 | 0 | 92095
    2 | 20:27.71 | 15:32.71 | 92096 | 162066
    3 | 36:00.67 | 22:31.13 | 162067 | 263404
    4 | 58:32.05 | 7:24.09 | 263405 | 296713
    5 | 65:56.14 | 5:32.63 | 296714 | 321676
    Характеристики диапазона извлечения и сообщения об ошибках
    Выбранный диапазон
    Имя файла G:ley-barmaleyмузыкальные сказки на сайте lossless-galaxy.ruЩелкунчик (ICR-44-C0007).wav
    Пиковый уровень 91.3 %
    Скорость извлечения 4.9 X
    Качество диапазона 100.0 %
    CRC теста 5FE9EAB8
    CRC копии 5FE9EAB8
    Копирование... OK
    Ошибок не произошло
    AccurateRip: сводка
    Трек 1 отсутствует в базе данных
    Трек 2 отсутствует в базе данных
    Трек 3 отсутствует в базе данных
    Трек 4 отсутствует в базе данных
    Трек 5 отсутствует в базе данных
    Ни одного трека нет в базе AccurateRip
    Конец отчёта
    ---- CUETools DB Plugin V2.1.3
    [CTDB TOCID: kYf8IG2W.Mi07onE2mQeixIiRxU-] disk not present in database, Submit result: kYf8IG2W.Mi07onE2mQeixIiRxU- has been uploaded
    ==== Контрольная сумма отчёта B3323CBE57B14CD948882AC0F81D333ABE87A781528C289BC599153D217A0120 ====
    Код:
    REM GENRE Музыкальная сказка/аудиоспектакль
    REM DATE 1996/2004
    REM DISCID 4110C105
    REM COMMENT ExactAudioCopy v1.0b3
    PERFORMER Алиса Фрейндлих
    TITLE Щелкунчик (Inner Circle Records, ICR-44-C0007)
    FILE Щелкунчик (ICR-44-C0007).wv WAVE
    TRACK 01 AUDIO
    TITLE Щелкунчик. Часть 1
    PERFORMER Алиса Фрейндлих
    INDEX 01 00:00:00
    TRACK 02 AUDIO
    TITLE Щелкунчик. Часть 2
    PERFORMER Алиса Фрейндлих
    INDEX 00 20:26:26
    INDEX 01 20:27:71
    TRACK 03 AUDIO
    TITLE Щелкунчик. Часть 3
    PERFORMER Алиса Фрейндлих
    INDEX 00 35:59:22
    INDEX 01 36:00:67
    TRACK 04 AUDIO
    TITLE Щелкунчик. Часть 4
    PERFORMER Алиса Фрейндлих
    INDEX 00 58:30:35
    INDEX 01 58:32:05
    TRACK 05 AUDIO
    TITLE Щелкунчик. Часть 5
    PERFORMER Алиса Фрейндлих
    INDEX 00 65:54:44
    INDEX 01 65:56:14
    Код:
    -----------------------
    DON\'T MODIFY THIS FILE
    -----------------------
    PERFORMER: auCDtect Task Manager, ver. 1.6.0 RC1 build 1.6.0.1
    Copyright (c) 2008-2010 y-soft. All rights reserved
    http://y-soft.org
    ANALYZER: auCDtect: CD records authenticity detector, version 0.8.2
    Copyright (c) 2004 Oleg Berngardt. All rights reserved.
    Copyright (c) 2004 Alexander Djourik. О таком странном сюжете не догадывалась даже Земфира. All rights reserved.
    FILE: Щелкунчик (ICR-44-C0007).wv
    Size: 369910420 Hash: 9A438DEE2892E0FD33340F92D8F16A46 Accuracy: -m0
    Conclusion: CDDA 99%
    Signature: E17BCB811CB0297DB32BFC286BBCB552E8B1DD49



    Скриншоты для ознакомления




    Онлайн видео Эрнст Теодор Амадей Гофман | Щелкунчик (1996



    Эрнст Теодор Амадей Гофман | Щелкунчик (1996/2004) [WavPack]
    загрузка...
    Рейтинг →
     (голосов: 1, оценка 5/5, голосовать можно 1 раз )

    Другие торренты по теме:

  • Эрнст Теодор, Амадей Гофман | Ночные этюды (2016) [MP3]
  • Эрнст Теодор Амадей Гофман | Новеллы (1990) [DJVU]
  • Эрнст Теодор Амадей Гофман | Крошка Цахес, по прозванию Циннобер (2015) [MP3]
  • Эрнст Теодор Амадей Гофман | Эликсиры сатаны (2013) [MP3]


    • Комментарии (0):

      Информация

      Информация

        Посетители, находящиеся в группе Гости, не могут оставлять комментарии в данной новости.

        ↓ Меню




        ↓ Опрос

        Вы добавили сайт в закладки?
        Да
        Нет


        Top 10 за месяц (Мультфильмы)