.
Авторизация | Регистрация
Хочешь лучшие торренты? Добавь свой email!
Добавить

Торрент скачать бесплатно

» » Lego Звездные войны: Истории дроидов / Lego Star Wars: Droid Tales (2015) SATRip (сезон 1, серия 1 из 4) [обновляемая] скачать через торрент бесплатно




    Lego Звездные войны: Истории дроидов / Lego Star Wars: Droid Tales (2015) SATRip (сезон 1, серия 1 из 4) [обновляемая] скачать через торрент бесплатно

    Опубликовал: Админ | Дата: 2-11-2015, 04:00 | Просмотров: 461

    Производство: США, Дисней
    Жанр: Мультсериал, приключения, семейный
    Режиссер: Майкл Хэгнер

    Актеры
    Энтони Дэниелс, Тревор Дивэлл, Брайан Добсон, Майкл Донован, Брайан Драммонд, Эндрю Френсис, Адриан Холмс, Том Кэйн, Келли Мецгер, Кирби Морроу

    Описание

    Давным-давно в далёкой-далёкой Галактике жили дроиды C-3PO и R2-D2. Находясь в эпицентре легендарных событий, они создали свою версию происходящего и решили поделиться ей с обитателями Вселенной.

    Дата мировой премьеры: 6 июля 2015
    Релиз от: ant31
    Продолжительность: 00: 21: 59
    Качество видео: SATRip
    Перевод: Дублированный
    Видео: MPEG4, XviD, 720x400 (16: 9), 25.000 fps, 1 903 Kbps (0.264 bit/pixel)
    Аудио: AC-3, 48.0 KHz, 2 ch, 192 Kbps, CBR
    Код:

    Формат : AVI
    Формат/Информация : Audio Video Interleave
    Размер файла : 331 Мбайт
    Продолжительность : 21 м.
    Общий поток : 2104 Кбит/сек
    Программа кодирования : VirtualDubMod 1.5.10.3 |www.virtualdub-fr.org|| (build 2550/release)
    Библиотека кодирования : VirtualDubMod build 2550/release
    Видео
    Идентификатор : 0
    Формат : MPEG-4 Visual
    Профиль формата : Advanced Simple@L5
    Параметр BVOP формата : 1
    Параметр QPel формата : Нет
    Параметр GMC формата : Без точки перехода
    Параметр матрицы формата : Default (MPEG)
    Идентификатор кодека : XVID
    Идентификатор кодека/Подсказка : XviD
    Продолжительность : 21 м.
    Битрейт : 1903 Кбит/сек
    Ширина : 720 пикселей
    Высота : 400 пикселей
    Соотношение сторон : 16:9
    Частота кадров : 25, 000 кадров/сек
    Цветовое пространство : YUV
    Субдискретизация насыщенности : 4:2:0
    Битовая глубина : 8 бит
    Тип развёртки : Прогрессивная
    Метод сжатия : С потерями
    Бит/(Пиксели*Кадры) : 0.264
    Размер потока : 299 Мбайт (90%)
    Библиотека кодирования : XviD 1.2.1 (UTC 2008-12-04)
    Аудио
    Идентификатор : 1
    Формат : AC-3
    Формат/Информация : Audio Coding 3
    Расширение режима : CM (complete main)
    Параметр Endianness формата : Big
    Идентификатор кодека : 2000
    Продолжительность : 21 м.
    Вид битрейта : Постоянный
    Битрейт : 192 Кбит/сек
    Каналы : 2 канала
    Расположение каналов : Front: L R
    Частота : 48, 0 КГц
    Битовая глубина : 16 бит
    Метод сжатия : С потерями
    Размер потока : 30, 2 Мбайт (9%)
    Выравнивание : Разделение по промежуткам
    Продолжительность промежутка : 40 мс. (1, 00 видеокадр)
    Время предзагрузки промежутка : 500 мс.


    Скриншоты для ознакомления




    Онлайн видео Lego Звездные войны: Истории дроидов



    Lego Звездные войны: Истории дроидов/Lego Star Wars: Droid Tales (2015) SATRip (сезон 1, серия 1 из 4) [обновляемая]
    загрузка...
    Рейтинг →
     (голосов: 1, оценка 3/5, голосовать можно 1 раз )

    Другие торренты по теме:

  • LEGO Star Wars: The Force Awakens / LEGO Звездные войны: Пробуждение Силы (2016) [Xbox360] [RegionFree] 17349 [FreeBoot] [License] [Ru / En]
  • LEGO Star Wars: The Force Awakens / LEGO Звездные войны: Пробуждение Силы (2016) [Xbox360] [RegionFree] 17349 [LT+3.0] [License] [Ru / En]
  • Lego Звездные войны: Хроники Йоды / LEGO STAR WARS: The Yoda Chronicles (2013) WEB-DLRip [H.264] (сезон 2, серии 1-4 из 4) MP4|1024x576]
  • Lego Звездные войны: Хроники Йоды / LEGO STAR WARS: The Yoda Chronicles (2013) WEB-DLRip [H.264] (сезон 1, серии 1-3 из 3) MP4|1024x576]
  • Lego Звездные войны: Хроники Йоды / LEGO STAR WARS: The Yoda Chronicles (2013) WEB-DLRip [H.264] (сезон 1, серии 1-3 из 3)
  • Lego Звездные войны: Хроники Йоды / LEGO STAR WARS: The Yoda Chronicles (2013) WEB-DLRip [H.264] (сезон 2, серии 1-4 из 4)
  • Lego Звездные войны: Империя наносит удар / Lego Star Wars: The Empire Strikes Out (2012) HDTVRip [H.264] [MP4|1024x576]
  • Lego Звездные войны: Падаванская угроза / Lego Star Wars: The Padawan Menace (2011) HDRip [H.264] [MP4|1024x576]


    • Комментарии (0):

      Информация

      Информация

        Посетители, находящиеся в группе Гости, не могут оставлять комментарии в данной новости.

        ↓ Меню




        ↓ Опрос

        Вы добавили сайт в закладки?
        Да
        Нет


        Top 10 за месяц (Мультфильмы)