.
Авторизация | Регистрация
Хочешь лучшие торренты? Добавь свой email!
Добавить

Торрент скачать бесплатно

» » Лада из страны Берендеев (1971) SATRip торрент скачать бесплатно




    Лада из страны Берендеев (1971) SATRip торрент скачать бесплатно

    Опубликовал: Админ | Дата: 1-12-2017, 05:00 | Просмотров: 0

    Производство: СССР/К/ст им. А. Довженко
    Жанр: Детский, мюзикл, приключения, семейный
    Режиссер: Анатолий Буковский

    Актеры
    Светлана Пелиховская, Майя Булгакова, Николай Гринько, Николай Яковченко, Владимир Дальский, Нина Антонова, Иван Миколайчук, Раиса Недашковская, Маргарита Кошелева, Лев Перфилов

    Описание

    Простая девушка Лада попадает в королевство Магнума IV, где проводится конкурс певиц, победа в котором заранее обеспечена одаренной дочери короля, принцессе Моггот.

    Продолжительность: 01: 26: 00
    Качество видео: SATRip
    Субтитры: Отсутствуют
    Видео: Xvid, 704x528 (4: 3), ~2215 Kbps
    Аудио: AC3, 2 ch, 192 Kbps

    Общее
    Полное имя : D: Лада из страны Берендеев (1971).avi
    Формат : AVI
    Формат/Информация : Audio Video Interleave
    Размер файла : 1, 45 Гбайт
    Продолжительность : 1 ч. 26 м.
    Общий поток : 2416 Кбит/сек
    Программа кодирования : VirtualDubMod 1.5.10.3 |www.virtualdub-fr.org|| (build 2550/release)
    Библиотека кодирования : VirtualDubMod build 2550/release
    Видео
    Идентификатор : 0
    Формат : MPEG-4 Visual
    Профиль формата : Advanced Simple@L5
    Настройки формата : BVOP1/Custom Matrix
    Параметр BVOP формата : 1
    Параметр QPel формата : Нет
    Параметр GMC формата : Без точки перехода
    Параметр матрицы формата : Выборочная
    Идентификатор кодека : XVID
    Идентификатор кодека/Подсказка : XviD
    Продолжительность : 1 ч. 26 м.
    Битрейт : 2214 Кбит/сек
    Ширина : 704 пикселя
    Высота : 528 пикселей
    Соотношение сторон : 4: 3
    Частота кадров : 25, 000 кадров/сек
    Цветовое пространство : YUV
    Субдискретизация насыщенности : 4: 2: 0
    Битовая глубина : 8 бит
    Тип развёртки : Прогрессивная
    Метод сжатия : С потерями
    Бит/(Пиксели*Кадры) : 0.238
    Размер потока : 1, 33 Гбайт (92%)
    Библиотека кодирования : XviD 65
    Аудио
    Идентификатор : 1
    Формат : AC-3
    Формат/Информация : Audio Coding 3
    Идентификатор кодека : 2000
    Продолжительность : 1 ч. 26 м.
    Вид битрейта : Постоянный
    Битрейт : 192 Кбит/сек
    Каналы : 2 канала
    Расположение каналов : Front: L R
    Частота : 48, 0 КГц
    Частота кадров : 31, 250 кадров/сек (1536 SPF)
    Битовая глубина : 16 бит
    Метод сжатия : С потерями
    Размер потока : 118 Мбайт (8%)
    Выравнивание : Разделение по промежуткам
    Продолжительность промежутка : 40 мс. (1, 00 видеокадр)
    Время предзагрузки промежутка : 500 мс.
    ServiceKind/String : Complete Main

    Скриншоты для ознакомления



    Все одноименные релизы в Клубе
    Время раздачи: 24/7 (круглосуточно) (до появления первых 3-5 скачавших)


    Онлайн видео Н. М. Зенченко



    Лада из страны Берендеев (1971) SATRip
    загрузка...
    Рейтинг →
     (голосов: 1, оценка 5/5, голосовать можно 1 раз )

    Другие торренты по теме:

  • Лада-Русь - ведущая за собой (часть 1) (2015) HDTVRip [720p-LQ] скачать через торрент бесплатно
  • Лада-Русь - ведущая за собой (часть 2) (2015) HDTVRip [720p-LQ] скачать через торрент бесплатно
  • Хоккей. КХЛ 2015-2016. Лада (Тольятти) - Авангард (Омск) (09.01.2016) HDTVRip [H.264 / 720p-LQ] скачать через торрент бесплатно
  • Хоккей. КХЛ 2015-2016. Лада (Тольятти) - Барыс (Казахстан) (11.01.2016) HDTVRip [H.264 / 720p-LQ]
  • Хоккей. КХЛ 2015-2016. Ак барс (Казань) - Лада (Тольятти) (19.01.2016) SATRip
  • Хоккей. КХЛ 2015-2016. Лада (Тольятти) - Ак барс (Казань) (25.01.2016) HDTVRip [H.264 / 720p-LQ]
  • Хоккей. КХЛ 2015-2016. Лада - Динамо (Минск) (01.02.2016) HDTVRip [H.264 / 720p-LQ]
  • Игорь Бестужев-Лада | Крымская война 1853-1856 гг. (1956) [FB2]


    • Комментарии (0):

      Информация

      Информация

        Посетители, находящиеся в группе Гости, не могут оставлять комментарии в данной новости.

        ↓ Меню




        ↓ Опрос

        Вы добавили сайт в закладки?
        Да
        Нет


        Top 10 за месяц (Мультфильмы)