.
Авторизация | Регистрация
Хочешь лучшие торренты? Добавь свой email!
Добавить

Торрент скачать бесплатно

» » Деревенские каникулы (1969) SATRip торрент скачать бесплатно




    Деревенские каникулы (1969) SATRip торрент скачать бесплатно

    Опубликовал: Админ | Дата: 30-11-2017, 05:00 | Просмотров: 0

    Производство: СССР/Беларусьфильм
    Жанр: Короткометражный, детский, мелодрама
    Режиссер: Вячеслав Жариков

    Актеры
    Ирина Юревич, Виктор Махонин, Владимир Дорофеев, Семен Морозов, Александра Зимина

    Описание

    В деревню к бабушке на каникулы приезжает из Москвы старшеклассница Таня. Она знакомится с местным пареньком Лешкой. Он учит ее ездить на лошади. Между ними возникает взаимное чувство.

    Продолжительность: 00: 26: 17
    Качество видео: SATRip
    Субтитры: Отсутствуют
    Видео: Xvid, 704x528 (4: 3), ~2155 Kbps
    Аудио: MP3, 2 ch, 224 Kbps

    Общее
    Полное имя : D: Деревенские каникулы (1969).avi
    Формат : AVI
    Формат/Информация : Audio Video Interleave
    Размер файла : 449 Мбайт
    Продолжительность : 26 м. 17 с.
    Общий поток : 2388 Кбит/сек
    Программа кодирования : VirtualDubMod 1.5.10.2 (build 2540/release)
    Библиотека кодирования : VirtualDub build 32507/release
    Видео
    Идентификатор : 0
    Формат : MPEG-4 Visual
    Профиль формата : Advanced Simple@L5
    Настройки формата : BVOP1
    Параметр BVOP формата : 1
    Параметр QPel формата : Нет
    Параметр GMC формата : Без точки перехода
    Параметр матрицы формата : Default (H.263)
    Идентификатор кодека : XVID
    Идентификатор кодека/Подсказка : XviD
    Продолжительность : 26 м. 17 с.
    Битрейт : 2155 Кбит/сек
    Ширина : 704 пикселя
    Высота : 528 пикселей
    Соотношение сторон : 4: 3
    Частота кадров : 25, 000 кадров/сек
    Цветовое пространство : YUV
    Субдискретизация насыщенности : 4: 2: 0
    Битовая глубина : 8 бит
    Тип развёртки : Прогрессивная
    Метод сжатия : С потерями
    Бит/(Пиксели*Кадры) : 0.232
    Размер потока : 405 Мбайт (90%)
    Библиотека кодирования : XviD 1.2.1 (UTC 2008-12-04)
    Аудио
    Идентификатор : 1
    Формат : MPEG Audio
    Версия формата : Version 1
    Профиль формата : Layer 3
    Идентификатор кодека : 55
    Идентификатор кодека/Подсказка : MP3
    Продолжительность : 26 м. 17 с.
    Вид битрейта : Постоянный
    Битрейт : 224 Кбит/сек
    Каналы : 2 канала
    Частота : 48, 0 КГц
    Частота кадров : 41, 667 кадра/сек (1152 SPF)
    Метод сжатия : С потерями
    Размер потока : 42, 1 Мбайт (9%)
    Выравнивание : Соединение по промежуткам
    Продолжительность промежутка : 40 мс. (1, 00 видеокадр)
    Время предзагрузки промежутка : 504 мс.
    Библиотека кодирования : LAME3.98r
    Настройки программы : -m s -V 4 -q 2 -lowpass 19.4 -b 224-m s -V 4 -q 2 -lowpass 19.4 -b 224-m s -V 4 -q 2 -lowpass 19.4 -b 224

    Скриншоты для ознакомления



    Все одноименные релизы в Клубе
    Время раздачи: 24/7 (круглосуточно) (до появления первых 3-5 скачавших)


    Деревенские каникулы (1969) SATRip
    загрузка...
    Рейтинг →
     (голосов: 1, оценка 3/5, голосовать можно 1 раз )

    Другие торренты по теме:

  • Вячеслав Пьецух | Деревенские дневники (2017) [MP3]


    • Комментарии (0):

      Информация

      Информация

        Посетители, находящиеся в группе Гости, не могут оставлять комментарии в данной новости.

        ↓ Меню




        ↓ Опрос

        Вы добавили сайт в закладки?
        Да
        Нет


        Top 10 за месяц (Мультфильмы)