.
Авторизация | Регистрация
Хочешь лучшие торренты? Добавь свой email!
Добавить

Торрент скачать бесплатно

» » Мир Винкс / World of Winx (2016) WEBRip [H.264 / 1080p-LQ] (Сезон 1, 13 серий из 13) [UKR, EN] торрент скачать бесплатно




    Мир Винкс / World of Winx (2016) WEBRip [H.264 / 1080p-LQ] (Сезон 1, 13 серий из 13) [UKR, EN] торрент скачать бесплатно

    Опубликовал: Админ | Дата: 29-11-2017, 05:00 | Просмотров: 0

    Производство: Италия, США, Rainbow, Netflix
    Жанр: Детский, Приключения, Музыкальный
    Режиссер: Иджинио Страффи

    Описание

    По сюжету спин-оффа Винкс отправляются на Землю в поисках талантливых детей, чтобы помочь им развить волшебство своих талантов. Для этого они создают реалити-шоу под названием WoW и работают в нём судьями, скрывая свои настоящие личности. Во время своей миссии девушки сталкиваются с неизвестным преступником, который похищает талантливых детей, и Винкс пытаются его найти. Они приглашают на шоу талантов юную официантку Аннабелль, и её мечта становится реальностью. За это Винкс получают силу Дримикс, которая позволяет им чувствовать одарённых детей и перемещаться в мир снов.

    Релиз от: sergiyko
    Продолжительность: 00: 24: 20 серия
    Качество видео: WEBRip
    Перевод: Отсутствует
    Язык озвучки: украинский (закадровый ТК ТЕТ), английский
    Субтитры: английские, испанские, французские, китайский упрощенный, китайский традиционный.
    Видео: AVC/H.264, 1920х1080, ~5 800 Kbps
    Аудио 1: AC3, 2 ch, 192 Kbps - украинский
    Аудио 2: AC3, 6 ch, 384 Kbps - английский

    General
    Unique ID : 220560282735525521227797511078511138845 (0xA5EE5D84B678F9A188425AF50164581D)
    Complete name : E: MULTFILMSWorld of Winx 1080p WEBRipWorld of Winx S01 1080p WEBRipWorld.of.Winx.S01E01.The.Talent.Thief.1080p.WEBRip.Ukr.Eng.mkv
    Format : Matroska
    Format version : Version 4/Version 2
    File size : 1.06 GiB
    Duration : 24 min 22 s
    Overall bit rate mode : Variable
    Overall bit rate : 6 245 kb/s
    Movie name : World of Winx S01 1080p WEBRip by sergiyko
    Encoded date : UTC 2017-11-28 09: 28: 25
    Writing application : mkvmerge v18.0.0 (\'Apricity\') 64-bit
    Writing library : libebml v1.3.5 + libmatroska v1.4.8
    Video
    ID : 1
    Format : AVC
    Format/Info : Advanced Video Codec
    Format profile : Main@L4
    Format settings, CABAC : Yes
    Format settings, RefFrames : 3 frames
    Codec ID : V_MPEG4/ISO/AVC
    Duration : 24 min 22 s
    Bit rate mode : Variable
    Bit rate : 5 800 kb/s
    Maximum bit rate : 8 700 kb/s
    Width : 1 920 pixels
    Height : 1 080 pixels
    Display aspect ratio : 16: 9
    Frame rate mode : Constant
    Frame rate : 25.000 FPS
    Color space : YUV
    Chroma subsampling : 4: 2: 0
    Bit depth : 8 bits
    Scan type : Progressive
    Bits/(Pixel*Frame) : 0.112
    Stream size : 988 MiB (91%)
    Title : S01E01.The.Talent.Thief
    Writing library : x264 core 118
    Encoding settings : cabac=1/ref=3/deblock=1: 0: 0/analyse=0x1: 0x111/me=umh/subme=10/psy=1/psy_rd=1.00: 0.00/mixed_ref=1/me_range=24/chroma_me=1/trellis=2/8x8dct=0/cqm=0/deadzone=21, 11/fast_pskip=1/chroma_qp_offset=-2/threads=6/sliced_threads=0/nr=0/decimate=1/interlaced=0/bluray_compat=0/constrained_intra=0/bframes=2/b_pyramid=0/b_adapt=2/b_bias=0/direct=3/weightb=1/open_gop=0/weightp=2/keyint=50/keyint_min=26/scenecut=0/intra_refresh=0/rc_lookahead=0/rc=2pass/mbtree=1/bitrate=5800/ratetol=1.0/qcomp=0.50/qpmin=6/qpmax=51/qpstep=4/cplxblur=20.0/qblur=0.5/vbv_maxrate=8700/vbv_bufsize=11600/nal_hrd=vbr/ip_ratio=1.40/aq=1: 1.00
    Language : English
    Default : Yes
    Forced : No
    Audio #1
    ID : 2
    Format : AC-3
    Format/Info : Audio Coding 3
    Format settings, Endianness : Big
    Codec ID : A_AC3
    Duration : 24 min 22 s
    Bit rate mode : Constant
    Bit rate : 192 kb/s
    Channel(s) : 2 channels
    Channel positions : Front: L R
    Sampling rate : 48.0 kHz
    Frame rate : 31.250 FPS (1536 SPF)
    Bit depth : 16 bits
    Compression mode : Lossy
    Stream size : 33.5 MiB (3%)
    Title : MOV AC3 | ТЕТ
    Language : Ukrainian
    Service kind : Complete Main
    Default : Yes
    Forced : Yes
    Audio #2
    ID : 3
    Format : AC-3
    Format/Info : Audio Coding 3
    Format settings, Endianness : Big
    Codec ID : A_AC3
    Duration : 24 min 22 s
    Bit rate mode : Constant
    Bit rate : 384 kb/s
    Channel(s) : 6 channels
    Channel positions : Front: L C R, Side: L R, LFE
    Sampling rate : 48.0 kHz
    Frame rate : 31.250 FPS (1536 SPF)
    Bit depth : 16 bits
    Compression mode : Lossy
    Stream size : 67.0 MiB (6%)
    Title : Original
    Language : English
    Service kind : Complete Main
    Default : No
    Forced : No
    Text #1
    ID : 4
    Format : UTF-8
    Codec ID : S_TEXT/UTF8
    Codec ID/Info : UTF-8 Plain Text
    Duration : 23 min 27 s
    Bit rate : 55 b/s
    Count of elements : 491
    Stream size : 9.55 KiB (0%)
    Language : English
    Default : No
    Forced : No
    Text #2
    ID : 5
    Format : UTF-8
    Codec ID : S_TEXT/UTF8
    Codec ID/Info : UTF-8 Plain Text
    Duration : 23 min 33 s
    Bit rate : 51 b/s
    Count of elements : 234
    Stream size : 8.87 KiB (0%)
    Language : Spanish
    Default : No
    Forced : No
    Text #3
    ID : 6
    Format : UTF-8
    Codec ID : S_TEXT/UTF8
    Codec ID/Info : UTF-8 Plain Text
    Duration : 23 min 33 s
    Bit rate : 56 b/s
    Count of elements : 230
    Stream size : 9.69 KiB (0%)
    Language : French
    Default : No
    Forced : No
    Text #4
    ID : 7
    Format : UTF-8
    Codec ID : S_TEXT/UTF8
    Codec ID/Info : UTF-8 Plain Text
    Duration : 23 min 37 s
    Bit rate : 42 b/s
    Count of elements : 238
    Stream size : 7.41 KiB (0%)
    Title : Simplified
    Language : Chinese
    Default : No
    Forced : No
    Text #5
    ID : 8
    Format : UTF-8
    Codec ID : S_TEXT/UTF8
    Codec ID/Info : UTF-8 Plain Text
    Duration : 23 min 37 s
    Bit rate : 46 b/s
    Count of elements : 241
    Stream size : 8.06 KiB (0%)
    Title : Traditional
    Language : Chinese
    Default : No
    Forced : No


    Онлайн видео Мир Винкс



    Мир Винкс/World of Winx (2016) WEBRip [H.264/1080p-LQ] (Сезон 1, 13 серий из 13) [UKR, EN]
    загрузка...
    Рейтинг →
     (голосов: 1, оценка 3/5, голосовать можно 1 раз )

    Другие торренты по теме:

  • Клуб Винкс / Winx Club (2013) WEB-DLRip / HDTVRip (Cезон 6, серии 1-17 из 26) [Обновляемая]
  • Клуб Винкс: Тайна морской бездны / Winx Club: Il mistero degli abissi (2014) WEB-DLRip [H.264] скачать через торрент бесплатно
  • Клуб Винкс: Тайна морской бездны / Winx Club: Il mistero degli abissi (2014) WEB-DLRip
  • Клуб Винкс / Школа волшебниц / Winx Club (2013-2014) WEB-DL [1080p] (Cезон 6, Серии 1-13 из 13)
  • Клуб Винкс. Школа волшебниц / Клуб Вiнкс Школа Чарiвниць / Winx Club (2003) TVRip [H.264] (Сезон 1, серии 2-16, 18-20, 22-26 из 26) [UKR] скачать через торрент бесплатно
  • Клуб Винкс: Тайна морской бездны / Winx Club: Il mistero degli abissi (2014) BDRip [720p]
  • Клуб Винкс / Winx Club (2015) SATRip (сезон 7, серии 1-9 из 26) [ОБНОВЛЯЕМАЯ] скачать через торрент бесплатно
  • Клуб винкс / Школа волшебниц / Winx club (2004) WEB-DLRip [H.264] (Сезон 3, серии 1-26 из 26) (Никелодеон) [MP4|640x480]


    • Комментарии (0):

      Информация

      Информация

        Посетители, находящиеся в группе Гости, не могут оставлять комментарии в данной новости.

        ↓ Меню




        ↓ Опрос

        Вы добавили сайт в закладки?
        Да
        Нет


        Top 10 за месяц (Мультфильмы)