.
Авторизация | Регистрация
Хочешь лучшие торренты? Добавь свой email!
Добавить

Торрент скачать бесплатно

» » Звездный десант / Starship Troopers (2012-2017) BDRip [H.264 / 1080p-LQ] [Дилогия] торрент скачать бесплатно




    Звездный десант / Starship Troopers (2012-2017) BDRip [H.264 / 1080p-LQ] [Дилогия] торрент скачать бесплатно

    Опубликовал: Админ | Дата: 29-11-2017, 05:00 | Просмотров: 0

    Производство: Япония, США/Sola Digital Arts
    Жанр: мультфильм, фантастика, боевик
    Режиссер: Синдзи Арамаки
    Персонажи: Люси Кристиан, Дэвид Матранга, Джастин Доран, Дэвид Уолд, Эндрю Лав, Леральдо Анцальдуа, Сэм Роман, Эмили Невез, Мелисса Дэвис, Калоб Мартинес

    Описание

    После того, как был покинут отдаленный форпост Федерации форт Кейси, Карл Дженкинс отправляется на разведку и исчезает в туманности. Закаленные во множественных боях солдаты могут своими действиями принести на Землю смерть человечества, а могут и наоборот его спасти. Третьего не дано.

    Возраст: 16+ (зрителям, достигшим 16 лет)
    Рейтинг MPAA: R (лицам до 17 лет обязательно присутствие взрослого)
    Релиз от: Magnetto83
    Продолжительность: 01: 28: 48
    Качество видео: BDRip 1080p-LQ
    Перевод: Профессиональный (многоголосый, закадровый) (Лицензия BD EUR)
    Субтитры: Русские, Английские
    Видео: AVC/H.264, 1920x1080 (16: 9), 6 585 kb/s, 23.976 fps
    Аудио: AC3, 6 ch, 448 Kbps - Русский

    General
    Unique ID : 201426095267711246693942396117492762754 (0x9789413D917DE5E3958634608B510882)
    Complete name : Звездный десант. Вторжение 2012 Mvo Rus BDRip 1080р.mkv
    Format : Matroska
    Format version : Version 4/Version 2
    File size : 4.36 GiB
    Duration : 1 h 28 min
    Overall bit rate : 7 036 kb/s
    Movie name : Звездный десант. Вторжение 2012 Mvo Rus BDRip 1080р By R.G. GoldenShara
    Encoded date : UTC 2017-09-20 16: 13: 53
    Writing application : mkvmerge v7.0.0 (\'Where We Going\') 64bit built on Jun 9 2014 15: 16: 27
    Writing library : libebml v1.3.0 + libmatroska v1.4.1
    Cover : Yes
    Attachments : Cover.jpg
    Video
    ID : 1
    Format : AVC
    Format/Info : Advanced Video Codec
    Format profile : High@L4.1
    Format settings, CABAC : Yes
    Format settings, RefFrames : 4 frames
    Codec ID : V_MPEG4/ISO/AVC
    Duration : 1 h 28 min
    Bit rate : 6 585 kb/s
    Width : 1 920 pixels
    Height : 1 080 pixels
    Display aspect ratio : 16: 9
    Frame rate mode : Constant
    Frame rate : 23.976 (24000/1001) FPS
    Color space : YUV
    Chroma subsampling : 4: 2: 0
    Bit depth : 8 bits
    Scan type : Progressive
    Bits/(Pixel*Frame) : 0.132
    Stream size : 4.09 GiB (94%)
    Title : Звездный десант. Вторжение 2012 BDRip 1080р By Magnetto 83
    Writing library : x264 core 146 r2538 121396c
    Encoding settings : cabac=1/ref=4/deblock=1: 0: 0/analyse=0x3: 0x113/me=umh/subme=10/psy=1/psy_rd=1.00: 0.00/mixed_ref=1/me_range=32/chroma_me=1/trellis=2/8x8dct=1/cqm=0/deadzone=21, 11/fast_pskip=0/chroma_qp_offset=-2/threads=3/lookahead_threads=1/sliced_threads=0/nr=0/decimate=1/interlaced=0/bluray_compat=0/constrained_intra=0/bframes=8/b_pyramid=2/b_adapt=2/b_bias=0/direct=3/weightb=1/open_gop=0/weightp=2/keyint=250/keyint_min=23/scenecut=40/intra_refresh=0/rc=2pass/mbtree=0/bitrate=6585/ratetol=1.0/qcomp=0.60/qpmin=0/qpmax=69/qpstep=4/cplxblur=20.0/qblur=0.5/ip_ratio=1.40/pb_ratio=1.30/aq=2: 1.00
    Language : English
    Default : Yes
    Forced : No
    Audio
    ID : 2
    Format : AC-3
    Format/Info : Audio Coding 3
    Format settings, Endianness : Big
    Codec ID : A_AC3
    Duration : 1 h 28 min
    Bit rate mode : Constant
    Bit rate : 448 kb/s
    Channel(s) : 6 channels
    Channel positions : Front: L C R, Side: L R, LFE
    Sampling rate : 48.0 kHz
    Frame rate : 31.250 FPS (1536 SPF)
    Bit depth : 16 bits
    Compression mode : Lossy
    Stream size : 285 MiB (6%)
    Title : DD 5.1 @448 Kbps - Mvo | Лицензия |
    Language : Russian
    Service kind : Complete Main
    Default : Yes
    Forced : No
    Text #1
    ID : 3
    Format : UTF-8
    Codec ID : S_TEXT/UTF8
    Codec ID/Info : UTF-8 Plain Text
    Duration : 1 h 23 min
    Bit rate : 74 b/s
    Count of elements : 914
    Stream size : 45.6 KiB (0%)
    Title : Полные
    Language : Russian
    Default : No
    Forced : No
    Text #2
    ID : 4
    Format : UTF-8
    Codec ID : S_TEXT/UTF8
    Codec ID/Info : UTF-8 Plain Text
    Duration : 1 h 23 min
    Bit rate : 43 b/s
    Count of elements : 796
    Stream size : 26.7 KiB (0%)
    Title : Full
    Language : English
    Default : No
    Forced : No
    Menu
    00: 00: 00.000 : : Chapter 00
    00: 06: 01.611 : : Chapter 01
    00: 10: 44.393 : : Chapter 02
    00: 16: 59.309 : : Chapter 03
    00: 20: 35.192 : : Chapter 04
    00: 26: 48.440 : : Chapter 05
    00: 32: 48.132 : : Chapter 06
    00: 39: 01.797 : : Chapter 07
    00: 44: 34.421 : : Chapter 08
    00: 51: 01.516 : : Chapter 09
    00: 56: 55.620 : : Chapter 10
    01: 00: 33.755 : : Chapter 11
    01: 04: 49.135 : : Chapter 12
    01: 08: 09.168 : : Chapter 13
    01: 13: 16.225 : : Chapter 14
    01: 18: 14.189 : : Chapter 15

    Скриншоты для ознакомления



    Все одноименные релизы Звездный десант: Вторжение/Starship Troopers: Invasion на NNM-CLUB
    Звёздный десант: Предатель Марса/Starship Troopers: Traitor of Mars (2017) BDRip H.264/1080p-LQ
    Производство: Япония, США/Stage 6 Films
    Жанр: мультфильм, фантастика, боевик
    Режиссер: Синдзи Арамаки, Масару Мацумото
    Персонажи: Каспер Ван Дин, Дина Мейер, ДеРэй Дэвис, Люси Кристиан, Джастин Доран, Скотт Гиббс, Эмили Невез

    Описание

    На колонизированном людьми Марсе жизнь течёт мирно и спокойно. В остальной Федерации марсиан считают недалёкими, и десантник Джон Рико уже тоже начинает сомневаться в способностях своего отряда — раз за разом команда проваливает на симуляторе миссии по уничтожению колонии жуков. И когда внезапно Марс атакуют полчища уже настоящих гигантских насекомых, отряду новичков придется доказать, что марсиане способны постоять за родную планету.

    Рейтинг MPAA: R (лицам до 17 лет обязательно присутствие взрослого)
    Релиз от: Magnetto83
    Продолжительность: 01: 27: 44
    Качество видео: BDRip 1080p-LQ
    Перевод: Профессиональный (многоголосый, закадровый) (Лицензия BD EUR)
    Субтитры: Русские, Украинские, Английские
    Видео: AVC/H.264, 1920x1080 (16: 9), 6 674 kb/s, 23.976 fps
    Аудио: AC3, 6 ch, 448 Kbps - Русский

    General
    Unique ID : 183643455002661487966859742257116757340 (0x8A2871626BC7E777BBAAC44B848E3D5C)
    Complete name : Звёздный десант 2. Предатель Марса 2017 Mvo Rus BDRip 1080p.mkv
    Format : Matroska
    Format version : Version 4/Version 2
    File size : 4.37 GiB
    Duration : 1 h 27 min
    Overall bit rate : 7 125 kb/s
    Movie name : Звёздный десант: Предатель Марса 2017 Mvo Rus BDRip 1080p By R.G. GoldenShara
    Encoded date : UTC 2017-09-21 19: 25: 34
    Writing application : mkvmerge v7.0.0 (\'Where We Going\') 64bit built on Jun 9 2014 15: 16: 27
    Writing library : libebml v1.3.0 + libmatroska v1.4.1
    Cover : Yes
    Attachments : Cover.jpg
    Video
    ID : 1
    Format : AVC
    Format/Info : Advanced Video Codec
    Format profile : High@L4.1
    Format settings, CABAC : Yes
    Format settings, RefFrames : 4 frames
    Codec ID : V_MPEG4/ISO/AVC
    Duration : 1 h 27 min
    Bit rate : 6 674 kb/s
    Width : 1 920 pixels
    Height : 1 080 pixels
    Display aspect ratio : 16: 9
    Frame rate mode : Constant
    Frame rate : 23.976 (24000/1001) FPS
    Color space : YUV
    Chroma subsampling : 4: 2: 0
    Bit depth : 8 bits
    Scan type : Progressive
    Bits/(Pixel*Frame) : 0.134
    Stream size : 4.09 GiB (94%)
    Title : Звёздный десант: Предатель Марса 2017 BDRip 1080p By Magnetto 83
    Writing library : x264 core 146 r2538 121396c
    Encoding settings : cabac=1/ref=4/deblock=1: 0: 0/analyse=0x3: 0x113/me=umh/subme=10/psy=1/psy_rd=1.00: 0.00/mixed_ref=1/me_range=32/chroma_me=1/trellis=2/8x8dct=1/cqm=0/deadzone=21, 11/fast_pskip=0/chroma_qp_offset=-2/threads=3/lookahead_threads=1/sliced_threads=0/nr=0/decimate=1/interlaced=0/bluray_compat=0/constrained_intra=0/bframes=8/b_pyramid=2/b_adapt=2/b_bias=0/direct=3/weightb=1/open_gop=0/weightp=2/keyint=250/keyint_min=23/scenecut=40/intra_refresh=0/rc=2pass/mbtree=0/bitrate=6674/ratetol=1.0/qcomp=0.60/qpmin=0/qpmax=69/qpstep=4/cplxblur=20.0/qblur=0.5/ip_ratio=1.40/pb_ratio=1.30/aq=2: 1.00
    Language : English
    Default : Yes
    Forced : No
    Audio
    ID : 2
    Format : AC-3
    Format/Info : Audio Coding 3
    Format settings, Endianness : Big
    Codec ID : A_AC3
    Duration : 1 h 27 min
    Bit rate mode : Constant
    Bit rate : 448 kb/s
    Channel(s) : 6 channels
    Channel positions : Front: L C R, Side: L R, LFE
    Sampling rate : 48.0 kHz
    Frame rate : 31.250 FPS (1536 SPF)
    Bit depth : 16 bits
    Compression mode : Lossy
    Stream size : 281 MiB (6%)
    Title : DD 5.1 @ 448 kbps - MVO | Blu-ray EUR |
    Language : Russian
    Service kind : Complete Main
    Default : Yes
    Forced : No
    Text #1
    ID : 3
    Format : UTF-8
    Codec ID : S_TEXT/UTF8
    Codec ID/Info : UTF-8 Plain Text
    Duration : 1 h 27 min
    Bit rate : 86 b/s
    Count of elements : 1158
    Stream size : 55.3 KiB (0%)
    Title : Полные
    Language : Russian
    Default : No
    Forced : No
    Text #2
    ID : 4
    Format : UTF-8
    Codec ID : S_TEXT/UTF8
    Codec ID/Info : UTF-8 Plain Text
    Duration : 1 h 27 min
    Bit rate : 86 b/s
    Count of elements : 1166
    Stream size : 54.9 KiB (0%)
    Title : Повні
    Language : Ukrainian
    Default : No
    Forced : No
    Text #3
    ID : 5
    Format : UTF-8
    Codec ID : S_TEXT/UTF8
    Codec ID/Info : UTF-8 Plain Text
    Duration : 1 h 22 min
    Bit rate : 54 b/s
    Count of elements : 1206
    Stream size : 33.1 KiB (0%)
    Title : Full
    Language : English
    Default : No
    Forced : No
    Text #4
    ID : 6
    Format : UTF-8
    Codec ID : S_TEXT/UTF8
    Codec ID/Info : UTF-8 Plain Text
    Duration : 1 h 27 min
    Bit rate : 62 b/s
    Count of elements : 1335
    Stream size : 39.9 KiB (0%)
    Title : SDH
    Language : English
    Default : No
    Forced : No
    Text #5
    ID : 7
    Format : UTF-8
    Codec ID : S_TEXT/UTF8
    Codec ID/Info : UTF-8 Plain Text
    Duration : 1 h 26 min
    Bit rate : 82 b/s
    Count of elements : 1412
    Stream size : 52.5 KiB (0%)
    Title : SDH-Colored
    Language : English
    Default : No
    Forced : No
    Menu
    00: 00: 00.000 : en: (01)00: 00: 00: 000
    00: 06: 52.786 : en: (02)00: 06: 52: 786
    00: 11: 49.165 : en: (03)00: 11: 49: 165
    00: 15: 55.828 : en: (04)00: 15: 55: 828
    00: 22: 11.078 : en: (05)00: 22: 11: 078
    00: 28: 16.277 : en: (06)00: 28: 16: 277
    00: 34: 40.119 : en: (07)00: 34: 40: 119
    00: 38: 02.027 : en: (08)00: 38: 02: 027
    00: 41: 06.463 : en: (09)00: 41: 06: 463
    00: 51: 04.478 : en: (10)00: 51: 04: 478
    00: 56: 53.242 : en: (11)00: 56: 53: 242
    01: 02: 22.280 : en: (12)01: 02: 22: 280
    01: 06: 19.934 : en: (13)01: 06: 19: 934
    01: 13: 16.100 : en: (14)01: 13: 16: 100
    01: 18: 19.985 : en: (15)01: 18: 19: 985
    01: 22: 40.872 : en: (16)01: 22: 40: 872

    Скриншоты для ознакомления



    Все одноименные релизы Звёздный десант: Предатель Марса/Starship Troopers: Traitor of Mars на NNM-CLUB
    Время раздачи: (до появления первых 3-5 скачавших)
    Производство: Япония, США/Sola Digital Arts, Stage 6 Films
    Режиссер: Синдзи Арамаки, Масару Мацумото
    Персонажи: Люси Кристиан, Дэвид Матранга, Джастин Доран, Дэвид Уолд, Эндрю Лав, Леральдо Анцальдуа, Сэм Роман, Эмили Невез, Мелисса Дэвис, Калоб Мартинес

    Описание

    Звездный десант: Вторжение
    После того, как был покинут отдаленный форпост Федерации форт Кейси, Карл Дженкинс отправляется на разведку и исчезает в туманности. Закаленные во множественных боях солдаты могут своими действиями принести на Землю смерть человечества, а могут и наоборот его спасти. Третьего не дано.
    Звездный десант: Предатель Марса
    На колонизированном людьми Марсе жизнь течёт мирно и спокойно. В остальной Федерации марсиан считают недалёкими, и десантник Джон Рико уже тоже начинает сомневаться в способностях своего отряда — раз за разом команда проваливает на симуляторе миссии по уничтожению колонии жуков. И когда внезапно Марс атакуют полчища уже настоящих гигантских насекомых, отряду новичков придется доказать, что марсиане способны постоять за родную планету.
    Продолжительность: 01: 28: 48 , 01: 27: 44
    Перевод: Профессиональный (многоголосый, закадровый) (Лицензия BD EUR)
    Субтитры: Русские, английские, украинские


    Онлайн видео Звездный десант



    Звездный десант/Starship Troopers (2012-2017) BDRip [H.264/1080p-LQ] [Дилогия]
    загрузка...
    Рейтинг →
     (голосов: 1, оценка 4/5, голосовать можно 1 раз )

    Другие торренты по теме:

  • Звездный десант 3: Мародер / Starship Troopers 3: Marauder (2008) HDRip [H.264]
  • Солдатики 4: Звездный десант 1.9.0 [Ru] скачать через торрент бесплатно
  • Роберт Хайнлайн | Звездный десант (2008) [m4b|AAC]
  • Звездный десант / Starship Troopers (1997) BDRip [H.264 / 1080p-LQ]
  • Звездный десант / Starship Troopers (1997) BDRip [H.264] [Hand Made Extended Cut]
  • Звездный десант / Starship Troopers (1997) BDRip [H.264] [Hand Made Extended Cut]
  • Звездный десант 2: Герой федерации / Starship Troopers 2: Hero of the Federation (2004) BDRip [H.264]
  • Звездный десант / Starship Troopers (1997) BDRip [H.265 / 1080p-LQ]


    • Комментарии (0):

      Информация

      Информация

        Посетители, находящиеся в группе Гости, не могут оставлять комментарии в данной новости.

        ↓ Меню




        ↓ Опрос

        Вы добавили сайт в закладки?
        Да
        Нет


        Top 10 за месяц (Мультфильмы)