.
Авторизация | Регистрация
Хочешь лучшие торренты? Добавь свой email!
Добавить

Торрент скачать бесплатно

» » Реальная белка 2 / The Nut Job 2: Nutty by Nature (2017) BDRemux [H.264 / 1080p] торрент скачать бесплатно




    Реальная белка 2 / The Nut Job 2: Nutty by Nature (2017) BDRemux [H.264 / 1080p] торрент скачать бесплатно

    Опубликовал: Админ | Дата: 28-11-2017, 05:00 | Просмотров: 0

    Производство: Канада, Корея Южная, США, Gulfstream Pictures, Red Rover International, Shanghai Hoongman Technology Co., ToonBox Entertainment
    Жанр: Комедия, приключения, семейный
    Режиссер: Кэллан Брункер
    Продюсер: Боб Барлен, Jonghan Kim, Jongsoo Kim, ...
    Озвучка: Уилл Арнетт, Кэтрин Хайгл, Майя Рудольф, Джеки Чан, Изабела Монер, Петер Стормаре, Бобби Каннавале, Бобби Мойнахан, Джефф Данэм, Габриэль Иглесиас

    Описание

    В продолжении веселых хвостатых приключений белке Злюку и его друзьям снова нужно действовать сообща. На сей раз — чтобы спасти свой дом: мэр города задумал вырубить их парк и построить на его месте бездушные аттракционы… К счастью, у Злюка и других любителей арахиса есть план, не последняя роль в котором отведена новым друзьям наших героев — белым мышам под предводительством мудрого мистера Фэнга.

    Возраст: этот продукт не был классифицирован
    Рейтинг MPAA: PG (рекомендуется присутствие родителей)
    Дата мировой премьеры: 10 августа 2017
    Дата российской премьеры: 24 августа 2017, Централ Партнершип
    Релиз от: MR Sergei
    Продолжительность: 01: 31: 13
    Качество видео: BDRemux 1080p
    Перевод: Дублированный (iTunes)
    Субтитры: Английский
    Видео: AVC/H.264, 1920x1080 (16: 9), 34166 kbps, 23.976 fps
    Аудио #1: AC-3, 5.1, 48 kHz, 384 kbps | Русский
    Аудио #2: DTS-HD MA, 5.1, 48 kHz, 4025 kbps, 24-bit | Английский

    Общее
    Уникальный идентификатор : 171579954403108287819236014120180215316 (0x811518E25F17ABE4B753E58E419D6E14)
    Полное имя : D: ФильмыReal\'naya.belka.2.2017.BDRemux.1080p.NNMClub.mkv
    Формат : Matroska
    Версия формата : Version 4/Version 2
    Размер файла : 24, 6 Гбайт
    Продолжительность : 1 ч. 31 м.
    Режим общего битрейта : Переменный
    Общий поток : 38, 6 Мбит/сек
    Название фильма : MR Sergei for NoNaMe Club
    Дата кодирования : UTC 2017-11-27 07: 49: 24
    Программа кодирования : mkvmerge v18.0.0 (\'Apricity\') 64-bit
    Библиотека кодирования : libebml v1.3.5 + libmatroska v1.4.8
    Attachments : The-Nut-Job-2_3A-Nutty-by-Nature.jpg
    Видео
    Идентификатор : 1
    Формат : AVC
    Формат/Информация : Advanced Video Codec
    Профиль формата : High@L4.1
    Настройки формата : CABAC/4 Ref Frames
    Параметр CABAC формата : Да
    Параметр RefFrames формата : 4 кадра
    Параметр GOP формата : M=3, N=12
    Идентификатор кодека : V_MPEG4/ISO/AVC
    Продолжительность : 1 ч. 31 м.
    Вид битрейта : Переменный
    Битрейт : 34, 2 Мбит/сек
    Максимальный битрейт : 38, 0 Мбит/сек
    Ширина : 1920 пикселей
    Высота : 1080 пикселей
    Соотношение сторон : 16: 9
    Режим частоты кадров : Постоянный
    Частота кадров : 23, 976 (24000/1001) кадра/сек
    Цветовое пространство : YUV
    Субдискретизация насыщенности : 4: 2: 0
    Битовая глубина : 8 бит
    Тип развёртки : Прогрессивная
    Бит/(Пиксели*Кадры) : 0.687
    Размер потока : 21, 8 Гбайт (89%)
    Язык : English
    Default : Да
    Forced : Нет
    Аудио #1
    Идентификатор : 2
    Формат : AC-3
    Формат/Информация : Audio Coding 3
    Идентификатор кодека : A_AC3
    Продолжительность : 1 ч. 31 м.
    Вид битрейта : Постоянный
    Битрейт : 384 Кбит/сек
    Каналы : 6 каналов
    Расположение каналов : Front: L C R, Side: L R, LFE
    Частота : 48, 0 КГц
    Частота кадров : 31, 250 кадров/сек (1536 SPF)
    Битовая глубина : 16 бит
    Метод сжатия : С потерями
    Размер потока : 250 Мбайт (1%)
    Язык : Russian
    ServiceKind/String : Complete Main
    Default : Да
    Forced : Нет
    Аудио #2
    Идентификатор : 3
    Формат : DTS
    Формат/Информация : Digital Theater Systems
    Профиль формата : MA/Core
    Идентификатор кодека : A_DTS
    Продолжительность : 1 ч. 31 м.
    Вид битрейта : Переменный/Постоянный
    Битрейт : 4024 Кбит/сек/1509 Кбит/сек
    Каналы : 6 каналов
    Расположение каналов : Front: L C R, Side: L R, LFE
    Частота : 48, 0 КГц
    Частота кадров : 93, 750 кадра/сек (512 SPF)
    Битовая глубина : 24 бит
    Метод сжатия : Без потерь/Lossy
    Размер потока : 2, 56 Гбайт (10%)
    Язык : English
    Default : Нет
    Forced : Нет
    Текст
    Идентификатор : 4
    Формат : UTF-8
    Идентификатор кодека : S_TEXT/UTF8
    Идентификатор кодека/Информация : UTF-8 Plain Text
    Продолжительность : 1 ч. 29 м.
    Битрейт : 72 бит/сек
    ElementCount : 1765
    Размер потока : 47, 8 Кбайт (0%)
    Язык : English
    Default : Нет
    Forced : Нет
    Меню
    00: 00: 00.000 : en: 00: 00: 00.000
    00: 03: 50.313 : en: 00: 03: 50.313
    00: 08: 22.043 : en: 00: 08: 22.043
    00: 11: 13.715 : en: 00: 11: 13.715
    00: 15: 12.036 : en: 00: 15: 12.036
    00: 21: 43.636 : en: 00: 21: 43.636
    00: 26: 14.114 : en: 00: 26: 14.114
    00: 29: 11.833 : en: 00: 29: 11.833
    00: 34: 00.789 : en: 00: 34: 00.789
    00: 37: 21.364 : en: 00: 37: 21.364
    00: 42: 34.510 : en: 00: 42: 34.510
    00: 48: 18.896 : en: 00: 48: 18.896
    00: 52: 09.043 : en: 00: 52: 09.043
    00: 55: 53.725 : en: 00: 55: 53.725
    01: 02: 19.069 : en: 01: 02: 19.069
    01: 05: 39.352 : en: 01: 05: 39.352
    01: 08: 30.648 : en: 01: 08: 30.648
    01: 13: 08.092 : en: 01: 13: 08.092
    01: 18: 30.039 : en: 01: 18: 30.039
    01: 21: 07.529 : en: 01: 21: 07.529

    File: D: ФильмыReal\'naya.belka.2.2017.BDRemux.1080p.NNMClub.mkv
    Duration: 01: 31: 13 (5473.34)
    Track #1: video
    lang: Unknown (1)
    codc: V_MPEG4/ISO/AVC - H264/AVC (22)
    reso: 1920x1080 - 16: 9
    fram: 23.976 fps
    rate: 34166 kbps (34166.4)
    dura: 01: 31: 13 (5473.3)
    size: 21.77 GB (23375390508)
    Track #2: audio
    lang: rus - Russian (15)
    codc: A_AC3 - AC3 (2)
    chan: 6 - 5.1 Surround
    samp: 48000 Hz
    rate: 384 kbps (384.06)
    dura: 01: 31: 04 (5463.97)
    size: 250.16 MB (262310360)
    Track #3: audio
    lang: Unknown (1)
    codc: A_DTS - DTS (13)
    chan: 6 - 5.1 Surround
    samp: 48000 Hz
    rate: 4025 kbps (4024.74)
    dura: 01: 31: 13 (5473.28)
    size: 2.56 GB (2753565233)
    Track #4: subtitles
    lang: Unknown (1)
    type: S_TEXT/UTF8 - SRT (3)
    size: 47.75 KB (48899)
    Sizes: (check sanity)
    disk: 24.58 GB (26393958734)
    atts: 362.51 KB (371208)
    trac: 4.58 GB (4916478520) based on track size
    bitr: 24.58 GB (26391724537) based on bitrate
    tdif: 20.00 GB (21477109006) 81.37%
    bdif: 1.78 MB (1862988) 0.00%

    Скриншоты для ознакомления


    Все одноименные релизы в Клубе
    Время раздачи: 24/7 (до появления первых 3-5 скачавших)


    Онлайн видео Реальная белка 2



    Реальная белка 2/The Nut Job 2: Nutty by Nature (2017) BDRemux [H.264/1080p]
    загрузка...
    Рейтинг →
     (голосов: 1, оценка 4/5, голосовать можно 1 раз )

    Другие торренты по теме:

  • Реальная белка 2 / The Nut Job 2: Nutty by Nature (2017) WEBRip [H.264 / 1080p] [Трейлер]
  • Реальная белка 2 / The Nut Job 2: Nutty by Nature (2017) CamRip [AD]
  • Реальная белка 2 / The Nut Job 2: Nutty by Nature (2017) WEB-DL [H.264 / 720p-LQ] [EN / EN Sub]
  • Реальная белка 2 / The Nut Job 2: Nutty by Nature (2017) BDRip [H.264 / 1080p] [Line] [AD]
  • Реальная белка 2 / The Nut Job 2: Nutty by Nature (2017) BDRip
  • Реальная белка 2 / The Nut Job 2: Nutty by Nature (2017) BDRip [H.264 / 1080p-LQ]
  • Реальная белка 2 / The Nut Job 2: Nutty by Nature (2017) BDRip [H.264 / 720p]
  • Реальная белка 2 / The Nut Job 2: Nutty by Nature (2017) BDRip [H.264 / 1080p]


    • Комментарии (0):

      Информация

      Информация

        Посетители, находящиеся в группе Гости, не могут оставлять комментарии в данной новости.

        ↓ Меню




        ↓ Опрос

        Вы добавили сайт в закладки?
        Да
        Нет


        Top 10 за месяц (Мультфильмы)