.
Авторизация | Регистрация
Хочешь лучшие торренты? Добавь свой email!
Добавить

Торрент скачать бесплатно

» » Реальная белка 2 / The Nut Job 2: Nutty by Nature (2017) BDRip [H.264 / 720p] торрент скачать бесплатно




    Реальная белка 2 / The Nut Job 2: Nutty by Nature (2017) BDRip [H.264 / 720p] торрент скачать бесплатно

    Опубликовал: Админ | Дата: 28-11-2017, 05:00 | Просмотров: 0

    Производство: Канада, Корея Южная, США, Gulfstream Pictures, Red Rover International, Shanghai Hoongman Technology Co., ToonBox Entertainment
    Жанр: Комедия, приключения, семейный
    Режиссер: Кэллан Брункер
    Продюсер: Боб Барлен, Jonghan Kim, Jongsoo Kim, ...
    Озвучка: Уилл Арнетт, Кэтрин Хайгл, Майя Рудольф, Джеки Чан, Изабела Монер, Петер Стормаре, Бобби Каннавале, Бобби Мойнахан, Джефф Данэм, Габриэль Иглесиас

    Описание

    В продолжении веселых хвостатых приключений белке Злюку и его друзьям снова нужно действовать сообща. На сей раз — чтобы спасти свой дом: мэр города задумал вырубить их парк и построить на его месте бездушные аттракционы… К счастью, у Злюка и других любителей арахиса есть план, не последняя роль в котором отведена новым друзьям наших героев — белым мышам под предводительством мудрого мистера Фэнга.

    Возраст: этот продукт не был классифицирован
    Рейтинг MPAA: PG (рекомендуется присутствие родителей)
    Дата мировой премьеры: 10 августа 2017
    Дата российской премьеры: 24 августа 2017, Централ Партнершип
    Продолжительность: 01: 31: 13
    Качество видео: BDRip 720p
    Перевод: Дублированный (iTunes)
    Субтитры: Английский
    Видео: AVC/H.264, 1280x694 (1, 85: 1), 7576 kbps, 23.976 fps
    Аудио #1: AC-3, 5.1, 48 kHz, 384 kbps | Русский
    Аудио #2: DTS, 5.1, 48 kHz, 1510 kbps | Английский

    Общее
    Уникальный идентификатор : 247878896454396160118752812666826929486 (0xBA7BBD2A4673EF81BC192DD08CBA354E)
    Полное имя : D: ФильмыReal\'naya.belka.2.2017.BDRip.720p.mkv
    Формат : Matroska
    Версия формата : Version 4/Version 2
    Размер файла : 6, 04 Гбайт
    Продолжительность : 1 ч. 31 м.
    Общий поток : 9472 Кбит/сек
    Дата кодирования : UTC 2017-11-27 14: 27: 34
    Программа кодирования : mkvmerge v18.0.0 (\'Apricity\') 64-bit
    Библиотека кодирования : libebml v1.3.5 + libmatroska v1.4.8
    Attachments : The-Nut-Job-2_3A-Nutty-by-Nature.jpg
    Видео
    Идентификатор : 1
    Формат : AVC
    Формат/Информация : Advanced Video Codec
    Профиль формата : High@L4.1
    Настройки формата : CABAC/12 Ref Frames
    Параметр CABAC формата : Да
    Параметр RefFrames формата : 12 кадров
    Идентификатор кодека : V_MPEG4/ISO/AVC
    Продолжительность : 1 ч. 31 м.
    Битрейт : 7576 Кбит/сек
    Ширина : 1280 пикселей
    Высота : 694 пикселя
    Соотношение сторон : 1, 85: 1
    Режим частоты кадров : Постоянный
    Частота кадров : 23, 976 (24000/1001) кадра/сек
    Цветовое пространство : YUV
    Субдискретизация насыщенности : 4: 2: 0
    Битовая глубина : 8 бит
    Тип развёртки : Прогрессивная
    Бит/(Пиксели*Кадры) : 0.356
    Размер потока : 4, 83 Гбайт (80%)
    Библиотека кодирования : x264 core 146 r2538 121396c
    Настройки программы : cabac=1/ref=12/deblock=1: -3: -3/analyse=0x3: 0x133/me=umh/subme=10/psy=1/psy_rd=1.00: 0.00/mixed_ref=1/me_range=32/chroma_me=1/trellis=2/8x8dct=1/cqm=0/deadzone=21, 11/fast_pskip=0/chroma_qp_offset=-2/threads=6/lookahead_threads=1/sliced_threads=0/nr=0/decimate=0/interlaced=0/bluray_compat=0/constrained_intra=0/bframes=9/b_pyramid=2/b_adapt=2/b_bias=0/direct=3/weightb=1/open_gop=0/weightp=2/keyint=250/keyint_min=23/scenecut=40/intra_refresh=0/rc=crf/mbtree=0/crf=14.0/qcomp=0.60/qpmin=0/qpmax=69/qpstep=4/ip_ratio=1.40/pb_ratio=1.30/aq=3: 0.80
    Язык : English
    Default : Да
    Forced : Нет
    Аудио #1
    Идентификатор : 2
    Формат : AC-3
    Формат/Информация : Audio Coding 3
    Идентификатор кодека : A_AC3
    Продолжительность : 1 ч. 31 м.
    Вид битрейта : Постоянный
    Битрейт : 384 Кбит/сек
    Каналы : 6 каналов
    Расположение каналов : Front: L C R, Side: L R, LFE
    Частота : 48, 0 КГц
    Частота кадров : 31, 250 кадров/сек (1536 SPF)
    Битовая глубина : 16 бит
    Метод сжатия : С потерями
    Размер потока : 250 Мбайт (4%)
    Язык : Russian
    ServiceKind/String : Complete Main
    Default : Да
    Forced : Нет
    Аудио #2
    Идентификатор : 3
    Формат : DTS
    Формат/Информация : Digital Theater Systems
    Идентификатор кодека : A_DTS
    Продолжительность : 1 ч. 31 м.
    Вид битрейта : Постоянный
    Битрейт : 1509 Кбит/сек
    Каналы : 6 каналов
    Расположение каналов : Front: L C R, Side: L R, LFE
    Частота : 48, 0 КГц
    Частота кадров : 93, 750 кадра/сек (512 SPF)
    Битовая глубина : 24 бит
    Метод сжатия : С потерями
    Размер потока : 985 Мбайт (16%)
    Язык : English
    Default : Нет
    Forced : Нет
    Текст
    Идентификатор : 4
    Формат : UTF-8
    Идентификатор кодека : S_TEXT/UTF8
    Идентификатор кодека/Информация : UTF-8 Plain Text
    Продолжительность : 1 ч. 29 м.
    Битрейт : 72 бит/сек
    ElementCount : 1765
    Размер потока : 47, 8 Кбайт (0%)
    Язык : English
    Default : Нет
    Forced : Нет
    Меню
    00: 00: 00.000 : en: 00: 00: 00.000
    00: 03: 50.313 : en: 00: 03: 50.313
    00: 08: 22.043 : en: 00: 08: 22.043
    00: 11: 13.715 : en: 00: 11: 13.715
    00: 15: 12.036 : en: 00: 15: 12.036
    00: 21: 43.636 : en: 00: 21: 43.636
    00: 26: 14.114 : en: 00: 26: 14.114
    00: 29: 11.833 : en: 00: 29: 11.833
    00: 34: 00.789 : en: 00: 34: 00.789
    00: 37: 21.364 : en: 00: 37: 21.364
    00: 42: 34.510 : en: 00: 42: 34.510
    00: 48: 18.896 : en: 00: 48: 18.896
    00: 52: 09.043 : en: 00: 52: 09.043
    00: 55: 53.725 : en: 00: 55: 53.725
    01: 02: 19.069 : en: 01: 02: 19.069
    01: 05: 39.352 : en: 01: 05: 39.352
    01: 08: 30.648 : en: 01: 08: 30.648
    01: 13: 08.092 : en: 01: 13: 08.092
    01: 18: 30.039 : en: 01: 18: 30.039
    01: 21: 07.529 : en: 01: 21: 07.529

    File: D: ФильмыReal\'naya.belka.2.2017.BDRip.720p.mkv
    Duration: 01: 31: 13 (5473.34)
    Track #1: video
    lang: Unknown (1)
    codc: V_MPEG4/ISO/AVC - H264/AVC (22)
    reso: 1280x694 - Unknown (aka not common)
    fram: 23.976 fps
    rate: 7576 kbps (7575.98)
    dura: 01: 31: 13 (5473.3)
    size: 4.83 GB (5183203461)
    Track #2: audio
    lang: rus - Russian (15)
    codc: A_AC3 - AC3 (2)
    chan: 6 - 5.1 Surround
    samp: 48000 Hz
    rate: 384 kbps (384.04)
    dura: 01: 31: 04 (5464.10)
    size: 250.15 MB (262305576)
    Track #3: audio
    lang: Unknown (1)
    codc: A_DTS - DTS (13)
    chan: 6 - 5.1 Surround
    samp: 48000 Hz
    rate: 1509 kbps (1509.10)
    dura: 01: 31: 13 (5473.32)
    size: 984.65 MB (1032475171)
    Track #4: subtitles
    lang: Unknown (1)
    type: S_TEXT/UTF8 - SRT (3)
    size: 47.75 KB (48899)
    Sizes: (check sanity)
    disk: 6.04 GB (6480199820)
    atts: 362.51 KB (371208)
    trac: 2.03 GB (2183065811) based on track size
    bitr: 6.03 GB (6478422493) based on bitrate
    tdif: 4.00 GB (4296762801) 66.30%
    bdif: 1.34 MB (1406118) 0.02%

    Скриншоты для ознакомления


    Все одноименные релизы в Клубе
    Время раздачи: 24/7 (до появления первых 3-5 скачавших)


    Онлайн видео Реальная белка 2



    Реальная белка 2/The Nut Job 2: Nutty by Nature (2017) BDRip [H.264/720p]
    загрузка...
    Рейтинг →
     (голосов: 1, оценка 4/5, голосовать можно 1 раз )

    Другие торренты по теме:

  • Реальная белка 2 / The Nut Job 2: Nutty by Nature (2017) WEBRip [H.264 / 1080p] [Трейлер]
  • Реальная белка 2 / The Nut Job 2: Nutty by Nature (2017) CamRip [AD]
  • Реальная белка 2 / The Nut Job 2: Nutty by Nature (2017) WEB-DL [H.264 / 720p-LQ] [EN / EN Sub]
  • Реальная белка 2 / The Nut Job 2: Nutty by Nature (2017) BDRip [H.264 / 1080p] [Line] [AD]
  • Реальная белка 2 / The Nut Job 2: Nutty by Nature (2017) BDRip
  • Реальная белка 2 / The Nut Job 2: Nutty by Nature (2017) BDRip [H.264 / 1080p-LQ]
  • Реальная белка 2 / The Nut Job 2: Nutty by Nature (2017) BDRip [H.264 / 1080p]
  • Реальная белка 2 / The Nut Job 2: Nutty by Nature (2017) BDRip [H.264 / 1080p]


    • Комментарии (0):

      Информация

      Информация

        Посетители, находящиеся в группе Гости, не могут оставлять комментарии в данной новости.

        ↓ Меню




        ↓ Опрос

        Вы добавили сайт в закладки?
        Да
        Нет


        Top 10 за месяц (Мультфильмы)