.
Авторизация | Регистрация
Хочешь лучшие торренты? Добавь свой email!
Добавить

Торрент скачать бесплатно

» » Реальная белка 2 / The Nut Job 2: Nutty by Nature (2017) BDRip [H.264 / 1080p-LQ] торрент скачать бесплатно




    Реальная белка 2 / The Nut Job 2: Nutty by Nature (2017) BDRip [H.264 / 1080p-LQ] торрент скачать бесплатно

    Опубликовал: Админ | Дата: 28-11-2017, 05:00 | Просмотров: 0

    Производство: Канада, Корея Южная, США
    Жанр: Комедия, Приключения, Семейный
    Режиссер: Кэллан Брункер

    Описание

    В продолжении веселых хвостатых приключений белке Злюку и его друзьям снова нужно действовать сообща. На сей раз — чтобы спасти свой дом: мэр города задумал вырубить их парк и построить на его месте бездушные аттракционы… К счастью, у Злюка и других любителей арахиса есть план, не последняя роль в котором отведена новым друзьям наших героев — белым мышам под предводительством мудрого мистера Фэнга.

    Рейтинг MPAA: PG (рекомендуется присутствие родителей)
    Дата мировой премьеры: 10 августа 2017
    Дата российской премьеры: 24 августа 2017, Централ Партнершип
    Продолжительность: 01: 31: 13
    Качество видео: BDRip
    Перевод: Дублированный (iTunes)
    Субтитры: отсутствуют
    Видео: AVC/H.264, 1920x1036 (1, 85: 1), ~3322 Kbps
    Аудио: AC3, 6 ch, 384 kbps

    General
    Unique ID : 215977830167663418550391431976543444172 (0xA27BD129D1D99B3D8CA7B09AFCB1DCCC)
    Complete name : J: СборкаРеальная белка 2. - The Nut Job 2 Nutty by Nature 2017 1080p BDRip.AC3.x264.iTunes.mkv
    Format : Matroska
    Format version : Version 4/Version 2
    File size : 2.36 GiB
    Duration : 1 h 31 min
    Overall bit rate : 3 706 kb/s
    Encoded date : UTC 2017-11-27 17: 08: 41
    Writing application : mkvmerge v7.3.0 (\'Nouages\') 64bit built on Oct 22 2014 18: 53: 34
    Writing library : libebml v1.3.0 + libmatroska v1.4.1
    Video #1
    ID : 1
    Format : AVC
    Format/Info : Advanced Video Codec
    Format profile : High@L4.1
    Format settings : CABAC/4 Ref Frames
    Format settings, CABAC : Yes
    Format settings, RefFrames : 4 frames
    Codec ID : V_MPEG4/ISO/AVC
    Duration : 1 h 31 min
    Bit rate : 3 322 kb/s
    Width : 1 920 pixels
    Height : 1 036 pixels
    Display aspect ratio : 1.85: 1
    Frame rate mode : Constant
    Frame rate : 23.976 (24000/1001) FPS
    Color space : YUV
    Chroma subsampling : 4: 2: 0
    Bit depth : 8 bits
    Scan type : Progressive
    Bits/(Pixel*Frame) : 0.070
    Stream size : 2.12 GiB (90%)
    Writing library : x264 core 152 r2851 ba24899
    Encoding settings : cabac=1/ref=4/deblock=1: -3: -3/analyse=0x3: 0x133/me=umh/subme=10/psy=1/psy_rd=1.20: 1.50/mixed_ref=1/me_range=24/chroma_me=1/trellis=2/8x8dct=1/cqm=0/deadzone=21, 11/fast_pskip=1/chroma_qp_offset=-4/threads=12/lookahead_threads=2/sliced_threads=0/nr=0/decimate=1/interlaced=0/bluray_compat=0/constrained_intra=0/bframes=8/b_pyramid=0/b_adapt=2/b_bias=0/direct=3/weightb=1/open_gop=0/weightp=2/keyint=230/keyint_min=23/scenecut=288/intra_refresh=0/rc_lookahead=60/rc=2pass/mbtree=1/bitrate=3322/ratetol=1.0/qcomp=0.60/qpmin=3/qpmax=69/qpstep=4/cplxblur=20.0/qblur=0.5/ip_ratio=1.40/aq=1: 1.00
    Language : English
    Default : Yes
    Forced : No
    Color range : Limited
    Color primaries : BT.709
    Transfer characteristics : BT.709
    Matrix coefficients : BT.709
    Audio #2
    ID : 2
    Format : AC-3
    Format/Info : Audio Coding 3
    Format settings, Endianness : Big
    Codec ID : A_AC3
    Duration : 1 h 31 min
    Bit rate mode : Constant
    Bit rate : 384 kb/s
    Channel(s) : 6 channels
    Channel positions : Front: L C R, Side: L R, LFE
    Sampling rate : 48.0 kHz
    Frame rate : 31.250 FPS (1536 SPF)
    Bit depth : 16 bits
    Compression mode : Lossy
    Stream size : 250 MiB (10%)
    Title : Dub | DD 5.1 @ 384 kbps - iTunes
    Language : Russian
    Service kind : Complete Main
    Default : Yes
    Forced : No

    Скриншоты для ознакомления



    Все одноименные релизы в Клубе
    Время раздачи: Пн-Пт с 18: 00 до 22: 00 (до появления первых 3-5 скачавших)


    Онлайн видео Реальная белка 2



    Реальная белка 2/The Nut Job 2: Nutty by Nature (2017) BDRip [H.264/1080p-LQ]
    загрузка...
    Рейтинг →
     (голосов: 1, оценка 3/5, голосовать можно 1 раз )

    Другие торренты по теме:

  • Реальная белка 2 / The Nut Job 2: Nutty by Nature (2017) WEBRip [H.264 / 1080p] [Трейлер]
  • Реальная белка 2 / The Nut Job 2: Nutty by Nature (2017) CamRip [AD]
  • Реальная белка 2 / The Nut Job 2: Nutty by Nature (2017) WEB-DL [H.264 / 720p-LQ] [EN / EN Sub]
  • Реальная белка 2 / The Nut Job 2: Nutty by Nature (2017) BDRip [H.264 / 1080p] [Line] [AD]
  • Реальная белка 2 / The Nut Job 2: Nutty by Nature (2017) BDRip
  • Реальная белка 2 / The Nut Job 2: Nutty by Nature (2017) BDRip [H.264 / 720p]
  • Реальная белка 2 / The Nut Job 2: Nutty by Nature (2017) BDRip [H.264 / 1080p]
  • Реальная белка 2 / The Nut Job 2: Nutty by Nature (2017) BDRip [H.264 / 1080p]


    • Комментарии (0):

      Информация

      Информация

        Посетители, находящиеся в группе Гости, не могут оставлять комментарии в данной новости.

        ↓ Меню




        ↓ Опрос

        Вы добавили сайт в закладки?
        Да
        Нет


        Top 10 за месяц (Мультфильмы)