.
Авторизация | Регистрация
Хочешь лучшие торренты? Добавь свой email!
Добавить

Торрент скачать бесплатно

» » Zutto Mae kara Suki Deshita. Kokuhaku Jikkouiinkai | Ive Always Liked You: Confess Your Love Committee | Исполнительный комитет признаний в любви [2016, Movie] BDRip 1080p raw торрент скачать бесплатно




    Zutto Mae kara Suki Deshita. Kokuhaku Jikkouiinkai | Ive Always Liked You: Confess Your Love Committee | Исполнительный комитет признаний в любви [2016, Movie] BDRip 1080p raw торрент скачать бесплатно

    Опубликовал: Админ | Дата: 27-11-2017, 05:00 | Просмотров: 0

    Тип: Movie
    Жанр: повседневность, романтика, школа, комедия
    Продолжительность: 60 мин
    Дата выпуска: 23.04.2016
    Производство: Qualia Animation
    Автор оригинала: Honey Works
    Режиссер: Янагисава Тэцуя
    Ссылки: World-Art

    Описание

    Нацки Эномото вдруг признается в любви Ю Сэтогути. Но смутившись, забирает свои слова назад и говорит, что это была лишь репетиция перед настоящим признанием.
    Язык озвучки: Японский
    Субтитры: Русские
    Перевод: AleX_MytH
    Качество видео: BDRip
    Видео: AVC (High@L4), 1920x1080 (16: 9), ~23.976 fps, ~4154 kbps
    Аудио: FLAC, 2 ch, 48 kHz, 20 bit, ~955 kbps
    В каком порядке смотреть:
    #1 Исполнительный комитет признаний в любви - п/ф, начало цикла, 2016 (эта раздача)
    #2 Я все жду, когда полюбишь меня - п/ф, продолжение, 2016
    #3 Мы всегда были в 10 сантиметрах друг от друга. - ТВ (6 эп.), развитие франшизы, 2017

    Скриншоты для ознакомления



    General
    Complete name : Zutto Mae kara Suki Deshita. - Movie + SP BDRip 1080p FLACMoozzi2 Zutto Mae kara Suki Deshita. (BD 1920x1080 x.264 2Audio).mkv
    Format : Matroska
    Format version : Version 4/Version 2
    File size : 3.66 GiB
    Duration : 1 h 3 min
    Overall bit rate mode : Variable
    Overall bit rate : 8 208 kb/s
    Encoded date : UTC 2016-11-13 08: 37: 44
    Writing application : mkvmerge v9.2.0 (\'Photograph\') 64bit
    Writing library : libebml v1.3.3 + libmatroska v1.4.4
    Video
    ID : 1
    Format : AVC
    Format/Info : Advanced Video Codec
    Format profile : High@L5
    Format settings, CABAC : Yes
    Format settings, RefFrames : 5 frames
    Codec ID : V_MPEG4/ISO/AVC
    Duration : 1 h 3 min
    Bit rate : 4 154 kb/s
    Width : 1 920 pixels
    Height : 1 080 pixels
    Display aspect ratio : 16: 9
    Frame rate mode : Constant
    Frame rate : 23.976 (24000/1001) FPS
    Color space : YUV
    Chroma subsampling : 4: 2: 0
    Bit depth : 8 bits
    Scan type : Progressive
    Bits/(Pixel*Frame) : 0.084
    Stream size : 1.85 GiB (51%)
    Writing library : x264 core 148 r2638 7599210
    Encoding settings : cabac=1/ref=5/deblock=1: 1: 1/analyse=0x3: 0x113/me=umh/subme=9/psy=1/psy_rd=0.70: 0.00/mixed_ref=1/me_range=32/chroma_me=1/trellis=0/8x8dct=1/cqm=0/deadzone=21, 11/fast_pskip=0/chroma_qp_offset=-2/threads=12/lookahead_threads=1/sliced_threads=0/nr=0/decimate=1/interlaced=0/bluray_compat=0/constrained_intra=0/bframes=3/b_pyramid=2/b_adapt=2/b_bias=0/direct=1/weightb=1/open_gop=0/weightp=2/keyint=240/keyint_min=23/scenecut=40/intra_refresh=0/rc_lookahead=40/rc=crf/mbtree=1/crf=16.0/qcomp=0.60/qpmin=0/qpmax=69/qpstep=4/ip_ratio=1.40/aq=1: 1.00
    Language : Japanese
    Default : Yes
    Forced : No
    Audio #1
    ID : 2
    Format : FLAC
    Format/Info : Free Lossless Audio Codec
    Codec ID : A_FLAC
    Duration : 1 h 3 min
    Bit rate mode : Variable
    Bit rate : 955 kb/s
    Channel(s) : 2 channels
    Channel positions : Front: L R
    Sampling rate : 48.0 kHz
    Frame rate : 11.719 FPS (4096 SPF)
    Bit depth : 24 bits
    Detected bit depth : 20 bits
    Stream size : 436 MiB (12%)
    Writing library : libFLAC 1.3.1 (UTC 2014-11-25)
    Language : Japanese
    Default : Yes
    Forced : No
    Audio #2
    ID : 3
    Format : DTS
    Format/Info : Digital Theater Systems
    Format profile : MA/Core
    Mode : 16
    Format settings, Endianness : Big
    Codec ID : A_DTS
    Duration : 1 h 3 min
    Bit rate mode : Variable/Constant
    Bit rate : 3 072 kb/s/1 509 kb/s
    Channel(s) : 6 channels
    Channel positions : Front: L C R, Side: L R, LFE
    Sampling rate : 48.0 kHz
    Frame rate : 93.750 FPS (512 SPF)
    Bit depth : 24 bits
    Compression mode : Lossless/Lossy
    Stream size : 1.38 GiB (38%)
    Language : Japanese
    Default : No
    Forced : No
    Время раздачи: 24/7 (круглосуточно) (до появления первых 3-5 скачавших)


    Онлайн видео Zutto Mae kara Suki Deshita. Kokuhaku Jikkouiinkai



    Zutto Mae kara Suki Deshita. Kokuhaku Jikkouiinkai | Ive Always Liked You: Confess Your Love Committee | Исполнительный комитет признаний в любви [2016, Movie] BDRip 1080p raw
    загрузка...
    Рейтинг →
     (голосов: 1, оценка 4/5, голосовать можно 1 раз )

    Другие торренты по теме:

  • Zutto Mae Kara Suki Deshita.: Kokuhaku Jikkou Iinkai / Исполнительный комитет признаний в любви [2016, Movie] WEB-DL 1080p raw
  • Zutto Mae Kara Suki Deshita.: Kokuhaku Jikkou Iinkai / Исполнительный комитет признаний в любви [2016, Movie] WEB-DL 720p raw


    • Комментарии (0):

      Информация

      Информация

        Посетители, находящиеся в группе Гости, не могут оставлять комментарии в данной новости.

        ↓ Меню




        ↓ Опрос

        Вы добавили сайт в закладки?
        Да
        Нет


        Top 10 за месяц (Мультфильмы)