.
Авторизация | Регистрация
Хочешь лучшие торренты? Добавь свой email!
Добавить

Торрент скачать бесплатно

» » Реальная белка 2 / The Nut Job 2: Nutty by Nature (2017) BDRip торрент скачать бесплатно




    Реальная белка 2 / The Nut Job 2: Nutty by Nature (2017) BDRip торрент скачать бесплатно

    Опубликовал: Админ | Дата: 27-11-2017, 05:00 | Просмотров: 0

    Производство: Канада, Корея Южная, США/Gulfstream Pictures, Red Rover International, Shanghai Hoongman Technology Co., ToonBox Entertainment
    Жанр: Комедия, Приключения, Семейный
    Режиссер: Кэллан Брункер
    Продюссер: Боб Барлен, Jonghan Kim, Jongsoo Kim
    Озвучка: Уилл Арнетт, Кэтрин Хайгл, Майя Рудольф, Джеки Чан, Изабела Монер, Петер Стормаре, Бобби Каннавале, Бобби Мойнахан, Джефф Данэм, Габриэль Иглесиас

    Описание

    В продолжении веселых хвостатых приключений белке Злюку и его друзьям снова нужно действовать сообща. На сей раз — чтобы спасти свой дом: мэр города задумал вырубить их парк и построить на его месте бездушные аттракционы… К счастью, у Злюка и других любителей арахиса есть план, не последняя роль в котором отведена новым друзьям наших героев — белым мышам под предводительством мудрого мистера Фэнга.

    Рейтинг MPAA: PG (рекомендуется присутствие родителей)
    Дата мировой премьеры: 11 августа 2017
    Дата российской премьеры: 24 августа 2017, Централ Партнершип
    Релиз от: MegaPeer
    Продолжительность: 01: 31: 13
    Качество видео: BDRip | BDRemux 1080p |
    Перевод: Дублированный | iTunes
    Субтитры: Отсутствуют
    Видео: Xvid, 720x384, ~1834 Kbps
    Аудио: AC3, 6 ch, 384 Kbps

    Общее
    Полное имя : D: ВидеоtorrrentThe.Nut.Job.2.Nutty.by.Nature.2017.BDRip.1.42Gb.MegaPeer.avi
    Формат : AVI
    Формат/Информация : Audio Video Interleave
    Размер файла : 1, 42 Гбайт
    Продолжительность : 1 ч. 31 м.
    Общий поток : 2227 Кбит/сек
    Программа кодирования : VirtualDubMod 1.5.10.2 (build 2540/release)
    Библиотека кодирования : VirtualDubMod build 2540/release
    Видео
    Идентификатор : 0
    Формат : MPEG-4 Visual
    Профиль формата : Advanced Simple@L5
    Параметр BVOP формата : 1
    Параметр QPel формата : Нет
    Параметр GMC формата : Без точки перехода
    Параметр матрицы формата : Выборочная
    Идентификатор кодека : XVID
    Идентификатор кодека/Подсказка : XviD
    Продолжительность : 1 ч. 31 м.
    Битрейт : 1834 Кбит/сек
    Ширина : 704 пикселя
    Высота : 384 пикселя
    Соотношение сторон : 1, 85: 1
    Частота кадров : 23, 976 (24000/1001) кадра/сек
    Цветовое пространство : YUV
    Субдискретизация насыщенности : 4: 2: 0
    Битовая глубина : 8 бит
    Тип развёртки : Прогрессивная
    Метод сжатия : С потерями
    Бит/(Пиксели*Кадры) : 0.283
    Размер потока : 1, 17 Гбайт (82%)
    Библиотека кодирования : XviD 73
    Аудио
    Идентификатор : 1
    Формат : AC-3
    Формат/Информация : Audio Coding 3
    Параметр Endianness формата : Big
    Идентификатор кодека : 2000
    Продолжительность : 1 ч. 31 м.
    Вид битрейта : Постоянный
    Битрейт : 384 Кбит/сек
    Каналы : 6 каналов
    Расположение каналов : Front: L C R, Side: L R, LFE
    Частота : 48, 0 КГц
    Частота кадров : 31, 250 кадров/сек (1536 SPF)
    Битовая глубина : 16 бит
    Метод сжатия : С потерями
    Размер потока : 250 Мбайт (17%)
    Выравнивание : Разделение по промежуткам
    Продолжительность промежутка : 42 мс. (1, 00 видеокадр)
    Время предзагрузки промежутка : 500 мс.
    ServiceKind/String : Complete Main

    Скриншоты для ознакомления



    Все одноименные релизы в Клубе
    Время раздачи: 24/7 (до появления первых 3-5 скачавших)


    Онлайн видео Реальная белка 2



    Реальная белка 2/The Nut Job 2: Nutty by Nature (2017) BDRip
    загрузка...
    Рейтинг →
     (голосов: 1, оценка 3/5, голосовать можно 1 раз )

    Другие торренты по теме:

  • Реальная белка 2 / The Nut Job 2: Nutty by Nature (2017) WEBRip [H.264 / 1080p] [Трейлер]
  • Реальная белка 2 / The Nut Job 2: Nutty by Nature (2017) CamRip [AD]
  • Реальная белка 2 / The Nut Job 2: Nutty by Nature (2017) WEB-DL [H.264 / 720p-LQ] [EN / EN Sub]
  • Реальная белка 2 / The Nut Job 2: Nutty by Nature (2017) BDRip [H.264 / 1080p] [Line] [AD]
  • Реальная белка 2 / The Nut Job 2: Nutty by Nature (2017) BDRip [H.264 / 1080p-LQ]
  • Реальная белка 2 / The Nut Job 2: Nutty by Nature (2017) BDRip [H.264 / 720p]
  • Реальная белка 2 / The Nut Job 2: Nutty by Nature (2017) BDRip [H.264 / 1080p]
  • Реальная белка 2 / The Nut Job 2: Nutty by Nature (2017) BDRip [H.264 / 1080p]


    • Комментарии (0):

      Информация

      Информация

        Посетители, находящиеся в группе Гости, не могут оставлять комментарии в данной новости.

        ↓ Меню




        ↓ Опрос

        Вы добавили сайт в закладки?
        Да
        Нет


        Top 10 за месяц (Мультфильмы)