.
Авторизация | Регистрация
Хочешь лучшие торренты? Добавь свой email!
Добавить

Торрент скачать бесплатно

» » Снежная королева 3. Огонь и лед / The Snow Queen 3 (2016) BDRip [H.264 / 1080p] торрент скачать бесплатно




    Снежная королева 3. Огонь и лед / The Snow Queen 3 (2016) BDRip [H.264 / 1080p] торрент скачать бесплатно

    Опубликовал: Админ | Дата: 26-11-2017, 05:00 | Просмотров: 0

    Производство: Россия, Flame Node Entertainment, Wizart Animation
    Жанр: Комедия, приключения, семейный
    Режиссер: Алексей Цицилин
    Продюсер: Юрий Москвин, Владимир Николаев
    Персонажи: Наталия Быстрова, Филипп Лебедев, Диомид Виноградов, Александр Груздев, Михаил Тихонов, Николай Быстров, Ольга Шорохова, Ольга Зубкова, Всеволод Кузнецов, Филл Савенков

    Описание

    Редкий дар ввязываться во всевозможные неприятности — их семейная черта, да и что взять с тех, кто вырос среди снегов в компании троллей. Но повзрослев, Кай и Герда выходят на новый уровень — теперь они станут виновниками катастрофы мирового масштаба…

    Возраст: 6+ (зрителям, достигшим 6 лет)
    Дата мировой премьеры: 23 декабря 2016
    Дата российской премьеры: 29 декабря 2016, UPI
    Продолжительность: 01: 29: 10
    Качество видео: BDRip 1080p
    Перевод: Не требуется (русский) iTunes
    Субтитры: Отсутствуют
    Видео: AVC/H.264, 1920x808 (2.40: 1), ~9017 Kbps, 23.976 fps
    Аудио #1: АС-3, 6 ch, 384 Kbps | Русский
    Аудио #2: DTS, 6 ch, 1509 Kbps | Английский

    Общее
    Уникальный идентификатор : 198271859770602741918738562528791033074 (0x9529C56C74B32E67BFC961A5C4B8F4F2)
    Полное имя : D: ФильмыSnejnaya.koroleva.3.Ogon\'.i.led.2016.BDRip.1080p.NNMClub.mkv
    Формат : Matroska
    Версия формата : Version 4/Version 2
    Размер файла : 6, 80 Гбайт
    Продолжительность : 1 ч. 29 м.
    Общий поток : 10, 9 Мбит/сек
    Название фильма : MR Sergei for NoNaMe Club
    Дата кодирования : UTC 2017-11-25 05: 14: 38
    Программа кодирования : mkvmerge v18.0.0 (\'Apricity\') 64-bit
    Библиотека кодирования : libebml v1.3.5 + libmatroska v1.4.8
    Attachments : Snezhnaya-koroleva-3.jpg
    Видео
    Идентификатор : 1
    Формат : AVC
    Формат/Информация : Advanced Video Codec
    Профиль формата : High@L4.1
    Настройки формата : CABAC/5 Ref Frames
    Параметр CABAC формата : Да
    Параметр RefFrames формата : 5 кадров
    Идентификатор кодека : V_MPEG4/ISO/AVC
    Продолжительность : 1 ч. 29 м.
    Битрейт : 9017 Кбит/сек
    Ширина : 1920 пикселей
    Высота : 808 пикселей
    Соотношение сторон : 2, 40: 1
    Режим частоты кадров : Постоянный
    Частота кадров : 23, 976 (23976/1000) кадра/сек
    Частота кадров в оригинале : 23, 976 (24000/1001) кадра/сек
    Цветовое пространство : YUV
    Субдискретизация насыщенности : 4: 2: 0
    Битовая глубина : 8 бит
    Тип развёртки : Прогрессивная
    Бит/(Пиксели*Кадры) : 0.242
    Размер потока : 5, 62 Гбайт (83%)
    Библиотека кодирования : x264 core 152 r2851 ba24899
    Настройки программы : cabac=1/ref=5/deblock=1: 1: 1/analyse=0x3: 0x133/me=umh/subme=8/psy=1/psy_rd=1.00: 0.00/mixed_ref=1/me_range=16/chroma_me=1/trellis=1/8x8dct=1/cqm=0/deadzone=21, 11/fast_pskip=0/chroma_qp_offset=-2/threads=16/lookahead_threads=2/sliced_threads=0/nr=0/decimate=1/interlaced=0/bluray_compat=0/constrained_intra=0/bframes=3/b_pyramid=2/b_adapt=2/b_bias=0/direct=3/weightb=1/open_gop=0/weightp=2/keyint=250/keyint_min=23/scenecut=40/intra_refresh=0/rc_lookahead=50/rc=2pass/mbtree=1/bitrate=9017/ratetol=1.0/qcomp=0.60/qpmin=0/qpmax=69/qpstep=4/cplxblur=20.0/qblur=0.5/ip_ratio=1.40/aq=1: 1.00
    Язык : English
    Default : Да
    Forced : Нет
    Аудио #1
    Идентификатор : 2
    Формат : AC-3
    Формат/Информация : Audio Coding 3
    Идентификатор кодека : A_AC3
    Продолжительность : 1 ч. 29 м.
    Вид битрейта : Постоянный
    Битрейт : 384 Кбит/сек
    Каналы : 6 каналов
    Расположение каналов : Front: L C R, Side: L R, LFE
    Частота : 48, 0 КГц
    Частота кадров : 31, 250 кадров/сек (1536 SPF)
    Битовая глубина : 16 бит
    Метод сжатия : С потерями
    Размер потока : 245 Мбайт (4%)
    Язык : Russian
    ServiceKind/String : Complete Main
    Default : Да
    Forced : Нет
    Аудио #2
    Идентификатор : 3
    Формат : DTS
    Формат/Информация : Digital Theater Systems
    Идентификатор кодека : A_DTS
    Продолжительность : 1 ч. 29 м.
    Вид битрейта : Постоянный
    Битрейт : 1509 Кбит/сек
    Каналы : 6 каналов
    Расположение каналов : Front: L C R, Side: L R, LFE
    Частота : 48, 0 КГц
    Частота кадров : 93, 750 кадра/сек (512 SPF)
    Битовая глубина : 16 бит
    Метод сжатия : С потерями
    Размер потока : 962 Мбайт (14%)
    Язык : English
    Default : Нет
    Forced : Нет
    Меню
    00: 00: 00.000 : en: 00: 00: 00.000
    00: 07: 50.095 : en: 00: 07: 50.095
    00: 15: 37.687 : en: 00: 15: 37.687
    00: 21: 28.704 : en: 00: 21: 28.704
    00: 28: 56.735 : en: 00: 28: 56.735
    00: 37: 13.148 : en: 00: 37: 13.148
    00: 43: 49.669 : en: 00: 43: 49.669
    00: 50: 59.848 : en: 00: 50: 59.848
    01: 00: 15.612 : en: 01: 00: 15.612
    01: 05: 31.886 : en: 01: 05: 31.886
    01: 14: 14.659 : en: 01: 14: 14.659
    01: 20: 08.178 : en: 01: 20: 08.178

    File: D: ФильмыSnejnaya.koroleva.3.Ogon\'.i.led.2016.BDRip.1080p.NNMClub.mkv
    Duration: 01: 29: 10 (5350.39)
    Track #1: video
    lang: Unknown (1)
    codc: V_MPEG4/ISO/AVC - H264/AVC (22)
    reso: 1920x808 - Unknown (aka not common)
    fram: 23.976 fps
    rate: 9016 kbps (9016.32)
    dura: 01: 29: 10 (5350.35)
    size: 5.62 GB (6030060273)
    Track #2: audio
    lang: rus - Russian (15)
    codc: A_AC3 - AC3 (2)
    chan: 6 - 5.1 Surround
    samp: 48000 Hz
    rate: 384 kbps (384.05)
    dura: 01: 29: 09 (5348.99)
    size: 244.89 MB (256784949)
    Track #3: audio
    lang: Unknown (1)
    codc: A_DTS - DTS (13)
    chan: 6 - 5.1 Surround
    samp: 48000 Hz
    rate: 1509 kbps (1509.10)
    dura: 01: 29: 10 (5350.36)
    size: 962.52 MB (1009277895)
    Sizes: (check sanity)
    disk: 6.80 GB (7298224485)
    atts: 385.87 KB (395130)
    trac: 2.80 GB (3001155821) based on track size
    bitr: 6.80 GB (7296186608) based on bitrate
    tdif: 4.00 GB (4296673534) 58.87%
    bdif: 1.57 MB (1642746) 0.02%

    Скриншоты для ознакомления


    Все одноименные релизы в Клубе
    Время раздачи: 24/7 (до появления первых 3-5 скачавших)


    Онлайн видео Снежная королева 3. Огонь и лед



    Снежная королева 3. Огонь и лед/The Snow Queen 3 (2016) BDRip [H.264/1080p]
    загрузка...
    Рейтинг →
     (голосов: 1, оценка 4/5, голосовать можно 1 раз )

    Другие торренты по теме:

  • Снежная королева 2: Перезаморозка (2014) WEBRip скачать через торрент бесплатно
  • Снежная королева 2: Перезаморозка (2014) WEBRip [H.264 / 720p-LQ] скачать через торрент бесплатно
  • Снежная королева 2: Перезаморозка (2014) WEBRip [H.264] скачать через торрент бесплатно
  • Снежная королева 2: Перезаморозка (2014) WEB-DLRip
  • Снежная королева 2: Перезаморозка (2014) WEB-DL [720p]
  • Снежная королева 2: Перезаморозка (2014) WEB-DL [H.264 / 1080p-LQ]
  • Виктор Запаренко | Поиграем в сказку. Щелкунчик. Снежная королева. Книга-игра. 6-8 лет (2002) [PDF] скачать через торрент бесплатно
  • Снежная королева 2: Перезаморозка (2014) BDRip 3D [H.264 / 1080p] [Вертикальная анаморфная стереопара] [hand made 16:9]


    • Комментарии (0):

      Информация

      Информация

        Посетители, находящиеся в группе Гости, не могут оставлять комментарии в данной новости.

        ↓ Меню




        ↓ Опрос

        Вы добавили сайт в закладки?
        Да
        Нет


        Top 10 за месяц (Мультфильмы)