.
Авторизация | Регистрация
Хочешь лучшие торренты? Добавь свой email!
Добавить

Торрент скачать бесплатно

» » Снежная королева 3. Огонь и лед (2016) BDRip торрент скачать бесплатно




    Снежная королева 3. Огонь и лед (2016) BDRip торрент скачать бесплатно

    Опубликовал: Админ | Дата: 26-11-2017, 05:00 | Просмотров: 0

    Производство: Россия, Flame Node Entertainment, Wizart Animation
    Жанр: Мультфильм, комедия, приключения, семейный
    Режиссер: Алексей Цицилин
    В ролях: Наталия Быстрова, Филипп Лебедев, Диомид Виноградов, Александр Груздев, Михаил Тихонов, Николай Быстров, Ольга Шорохова, Ольга Зубкова, Всеволод Кузнецов, Филл Савенков

    Описание

    Редкий дар ввязываться во всевозможные неприятности — их семейная черта, да и что взять с тех, кто вырос среди снегов в компании троллей. Но повзрослев, Кай и Герда выходят на новый уровень — теперь они станут виновниками катастрофы мирового масштаба…

    Возраст: 6+ (зрителям, достигшим 6 лет)
    Дата мировой премьеры: 23 декабря 2016
    Дата российской премьеры: 23 декабря 2016
    Продолжительность: 01: 29: 10
    Качество видео: BDRip
    Перевод: Не требуется (русский) iTunes
    Субтитры: отсутствуют.
    Видео: Xvid, 720x304, ~1888 kbps
    Аудио: AC3, 6 ch, 384 Kbps

    Snezhnaya.koroleva.3.2016.BDRip.avi
    Формат : AVI
    Формат/Информация : Audio Video Interleave
    Размер файла : 1, 42 Гбайт
    Продолжительность : 1 ч. 29 м.
    Общий поток : 2281 Кбит/сек
    Программа кодирования : VirtualDubMod 1.5.10.2 (build 2540/release)
    Библиотека кодирования : VirtualDubMod build 2540/release
    Видео
    Идентификатор : 0
    Формат : MPEG-4 Visual
    Профиль формата : Advanced Simple@L5
    Настройки формата : BVOP1/Custom Matrix
    Параметр BVOP формата : 1
    Параметр QPel формата : Нет
    Параметр GMC формата : Без точки перехода
    Параметр матрицы формата : Выборочная
    Идентификатор кодека : XVID
    Идентификатор кодека/Подсказка : XviD
    Продолжительность : 1 ч. 29 м.
    Битрейт : 1888 Кбит/сек
    Ширина : 720 пикселей
    Высота : 304 пикселя
    Соотношение сторон : 2, 35: 1
    Частота кадров : 23, 976 (24000/1001) кадра/сек
    Цветовое пространство : YUV
    Субдискретизация насыщенности : 4: 2: 0
    Битовая глубина : 8 бит
    Тип развёртки : Прогрессивная
    Метод сжатия : С потерями
    Бит/(Пиксели*Кадры) : 0.360
    Размер потока : 1, 18 Гбайт (83%)
    Библиотека кодирования : XviD 73
    Аудио
    Идентификатор : 1
    Формат : AC-3
    Формат/Информация : Audio Coding 3
    Идентификатор кодека : 2000
    Продолжительность : 1 ч. 29 м.
    Вид битрейта : Постоянный
    Битрейт : 384 Кбит/сек
    Каналы : 6 каналов
    Расположение каналов : Front: L C R, Side: L R, LFE
    Частота : 48, 0 КГц
    Частота кадров : 31, 250 кадров/сек (1536 SPF)
    Битовая глубина : 16 бит
    Метод сжатия : С потерями
    Размер потока : 245 Мбайт (17%)
    Выравнивание : Разделение по промежуткам
    Продолжительность промежутка : 42 мс. (1, 00 видеокадр)
    Время предзагрузки промежутка : 500 мс.
    ServiceKind/String : Complete Main

    Скриншоты для ознакомления



    Все одноименные релизы в Клубе
    Время раздачи: 24/7 (до появления первых 3-5 скачавших)


    Онлайн видео Клара Моисеева



    Снежная королева 3. Огонь и лед (2016) BDRip
    загрузка...
    Рейтинг →
     (голосов: 1, оценка 3/5, голосовать можно 1 раз )

    Другие торренты по теме:

  • Снежная королева 2: Перезаморозка (2014) WEBRip скачать через торрент бесплатно
  • Снежная королева 2: Перезаморозка (2014) WEBRip [H.264 / 720p-LQ] скачать через торрент бесплатно
  • Снежная королева 2: Перезаморозка (2014) WEBRip [H.264] скачать через торрент бесплатно
  • Снежная королева 2: Перезаморозка (2014) WEB-DLRip
  • Снежная королева 2: Перезаморозка (2014) WEB-DL [720p]
  • Снежная королева 2: Перезаморозка (2014) WEB-DL [H.264 / 1080p-LQ]
  • Виктор Запаренко | Поиграем в сказку. Щелкунчик. Снежная королева. Книга-игра. 6-8 лет (2002) [PDF] скачать через торрент бесплатно
  • Снежная королева 2: Перезаморозка (2014) BDRip 3D [H.264 / 1080p] [Вертикальная анаморфная стереопара] [hand made 16:9]


    • Комментарии (0):

      Информация

      Информация

        Посетители, находящиеся в группе Гости, не могут оставлять комментарии в данной новости.

        ↓ Меню




        ↓ Опрос

        Вы добавили сайт в закладки?
        Да
        Нет


        Top 10 за месяц (Мультфильмы)