.
Авторизация | Регистрация
Хочешь лучшие торренты? Добавь свой email!
Добавить

Торрент скачать бесплатно

» » Снежная королева 3. Огонь и лед (2016) BDRip 3D [H.264 / 1080p] [Вертикальная анаморфная стереопара] [hand made 16:9] торрент скачать бесплатно




    Снежная королева 3. Огонь и лед (2016) BDRip 3D [H.264 / 1080p] [Вертикальная анаморфная стереопара] [hand made 16:9] торрент скачать бесплатно

    Опубликовал: Админ | Дата: 25-11-2017, 05:00 | Просмотров: 0

    Производство: Россия, Flame Node Entertainment, Wizart Animation
    Жанр: Мультфильм, Комедия, Приключения, Семейный
    Режиссер: Алексей Цицилин

    Актеры
    Наталия Быстрова, Филипп Лебедев, Диомид Виноградов, Александр Груздев, Михаил Тихонов, Николай Быстров, Ольга Шорохова, Ольга Зубкова, Всеволод Кузнецов, Филл Савенков

    Описание

    Редкий дар ввязываться во всевозможные неприятности — их семейная черта, да и что взять с тех, кто вырос среди снегов в компании троллей. Но повзрослев, Кай и Герда выходят на новый уровень — теперь они станут виновниками катастрофы мирового масштаба…

    Дата российской премьеры: 29 декабря 2016, UPI
    Релиз от: NNM-Club, RG Всё лучшее - детям!
    Продолжительность: 01: 29: 10
    Качество видео: BDRip 3D
    Перевод: Не требуется (русский) iTunes
    Субтитры: Отсутствуют
    Видео: AVC/H.264, 1920x1080, ~13, 3 Мбит/сек
    Аудио: AC3 5.1 384 Кбит/сек - Русский

    Общее
    Уникальный идентификатор : 226185109207812061997843627817892670828 (0xAA29AADFF47B7110A2BB52EA50B56D6C)
    Полное имя : K: tempTHE_SNOW_QUEEN_3_3D.mkv
    Формат : Matroska
    Версия формата : Version 2
    Размер файла : 8, 68 Гбайт
    Продолжительность : 1 ч. 29 м.
    Общий поток : 13, 9 Мбит/сек
    Название фильма : THE_SNOW_QUEEN_3_3D_Crop_HO/U
    Дата кодирования : UTC 2017-11-24 16: 08: 57
    Программа кодирования : mkvmerge v5.8.0 (\'No Sleep/Pillow\') built on Sep 2 2012 15: 37: 04
    Библиотека кодирования : libebml v1.2.3 + libmatroska v1.3.0
    Видео
    Идентификатор : 1
    Формат : AVC
    Формат/Информация : Advanced Video Codec
    Профиль формата : High@L4.1
    Параметр CABAC формата : Да
    Параметр ReFrames формата : 4 кадра
    Идентификатор кодека : V_MPEG4/ISO/AVC
    Продолжительность : 1 ч. 29 м.
    Битрейт : 13, 3 Мбит/сек
    Ширина : 1920 пикселей
    Высота : 1080 пикселей
    Соотношение сторон : 16: 9
    Режим частоты кадров : Постоянный
    Частота кадров : 23, 976 (24000/1001) кадра/сек
    Цветовое пространство : YUV
    Субдискретизация насыщенности : 4: 2: 0
    Битовая глубина : 8 бит
    Тип развёртки : Прогрессивная
    Бит/(Пиксели*Кадры) : 0.267
    Размер потока : 8, 27 Гбайт (95%)
    Заголовок : rip by I/N
    Библиотека кодирования : x264 core 128 r2216M 198a7ea
    Настройки программы : cabac=1/ref=4/deblock=1: -3: -3/analyse=0x3: 0x133/me=umh/subme=10/psy=1/psy_rd=1.00: 0.15/mixed_ref=1/me_range=32/chroma_me=1/trellis=2/8x8dct=1/cqm=0/deadzone=21, 11/fast_pskip=1/chroma_qp_offset=-3/threads=8/lookahead_threads=1/sliced_threads=0/nr=0/decimate=1/interlaced=0/bluray_compat=0/constrained_intra=0/bframes=12/b_pyramid=2/b_adapt=2/b_bias=0/direct=3/weightb=1/open_gop=0/weightp=2/keyint=230/keyint_min=23/scenecut=40/intra_refresh=0/rc_lookahead=40/rc=crf/mbtree=1/crf=15.0/qcomp=0.60/qpmin=10/qpmax=69/qpstep=4/vbv_maxrate=40000/vbv_bufsize=30000/crf_max=30.0/nal_hrd=none/ip_ratio=1.40/aq=2: 0.90
    Default : Да
    Forced : Нет
    Аудио
    Идентификатор : 2
    Формат : AC-3
    Формат/Информация : Audio Coding 3
    Параметр Endianness формата : Big
    Идентификатор кодека : A_AC3
    Продолжительность : 1 ч. 29 м.
    Вид битрейта : Постоянный
    Битрейт : 384 Кбит/сек
    Каналы : 6 каналов
    Расположение каналов : Front: L C R, Side: L R, LFE
    Частота : 48, 0 КГц
    Частота кадров : 31, 250 кадров/сек (1536 spf)
    Битовая глубина : 16 бит
    Метод сжатия : С потерями
    Размер потока : 245 Мбайт (3%)
    Заголовок : Дубляж (iTunes)
    Язык : Russian
    ServiceKind/String : Complete Main
    Default : Да
    Forced : Нет
    Меню
    00: 00: 00.000 : en: 00: 00: 00.000
    00: 07: 50.095 : en: 00: 07: 50.095
    00: 15: 37.687 : en: 00: 15: 37.687
    00: 21: 28.704 : en: 00: 21: 28.704
    00: 28: 56.735 : en: 00: 28: 56.735
    00: 37: 13.148 : en: 00: 37: 13.148
    00: 43: 49.669 : en: 00: 43: 49.669
    00: 50: 59.848 : en: 00: 50: 59.848
    01: 00: 15.612 : en: 01: 00: 15.612
    01: 05: 31.886 : en: 01: 05: 31.886
    01: 14: 14.659 : en: 01: 14: 14.659
    01: 20: 08.178 : en: 01: 20: 08.178
    01: 29: 08.969 : en: 01: 29: 08.969


    Онлайн видео Снежная королева 3. Огонь и лед (2016) BDRip 3D [H.264



    Снежная королева 3. Огонь и лед (2016) BDRip 3D [H.264/1080p] [Вертикальная анаморфная стереопара] [hand made 16:9]
    загрузка...
    Рейтинг →
     (голосов: 1, оценка 3/5, голосовать можно 1 раз )

    Другие торренты по теме:

  • Снежная королева 2: Перезаморозка (2014) WEBRip скачать через торрент бесплатно
  • Снежная королева 2: Перезаморозка (2014) WEBRip [H.264 / 720p-LQ] скачать через торрент бесплатно
  • Снежная королева 2: Перезаморозка (2014) WEBRip [H.264] скачать через торрент бесплатно
  • Снежная королева 2: Перезаморозка (2014) WEB-DLRip
  • Снежная королева 2: Перезаморозка (2014) WEB-DL [720p]
  • Снежная королева 2: Перезаморозка (2014) WEB-DL [H.264 / 1080p-LQ]
  • Виктор Запаренко | Поиграем в сказку. Щелкунчик. Снежная королева. Книга-игра. 6-8 лет (2002) [PDF] скачать через торрент бесплатно
  • Снежная королева 2: Перезаморозка (2014) BDRip 3D [H.264 / 1080p] [Вертикальная анаморфная стереопара] [hand made 16:9]


    • Комментарии (0):

      Информация

      Информация

        Посетители, находящиеся в группе Гости, не могут оставлять комментарии в данной новости.

        ↓ Меню




        ↓ Опрос

        Вы добавили сайт в закладки?
        Да
        Нет


        Top 10 за месяц (Мультфильмы)