.
Авторизация | Регистрация
Хочешь лучшие торренты? Добавь свой email!
Добавить

Торрент скачать бесплатно

» » Властелин колец / The Lord Of The Rings (1978) BDRip [H.265 / 1080p-LQ] [10-bit] торрент скачать бесплатно




    Властелин колец / The Lord Of The Rings (1978) BDRip [H.265 / 1080p-LQ] [10-bit] торрент скачать бесплатно

    Опубликовал: Админ | Дата: 23-11-2017, 05:00 | Просмотров: 0

    Производство: США/Fantasy Films, Saul Zaentz Production Company
    Жанр: Мультфильм, Приключения, Фентези
    Режиссер: Ральф Бакши
    Персонажи: Кристофер Гард, Уильям Скуайр, Майкл Скоулс, Джон Хёрт, Саймон Чэндлер, Доминик Гард, Норман Бёрд, Майкл Грэм Кокс, Энтони Дэниелс, Дэвид Бак

    Описание

    Сказания Средиземья — это хроника Великой войны за Кольцо, войны, длившейся не одну тысячу лет. Тот, кто владел Кольцом, получал власть над всеми живыми тварями, но был обязан служить злу. Хоббит Фродо призван уничтожить Кольцо. Он отправился за ним в Мордор и на огненную Гору Судьбы вместе с союзниками — эльфами, гномами, людьми и хоббитами.
    Властелин колец повествует о борьбе добра и зла, сохраняя сказочную атмосферу классики жанра фэнтези — трилогии Дж. Р. Р. Толкиена.

    Возраст: 0+ (для любой зрительской аудитории)
    Рейтинг MPAA: PG (рекомендуется присутствие родителей)
    Релиз от: Goor80
    Продолжительность: 02: 13: 20
    Качество видео: BDRip
    Перевод: Многоголосый закадровый, профессиональный
    Субтитры: русские, английские
    Видео: HEVC/H.265, 1920x1072, ~7881 Kbps
    Аудио 1: DTS, 6 ch, 1509 Kbps (русский)
    Аудио 2: AC3, 6 ch, 640 Kbps (английский)

    Общее
    Уникальный идентификатор : 233720032159552201046162636419705796279 (0xAFD4D74233E3B79E92A726C967B2F6B7)
    Полное имя : E: VideoВластелин колец (The Lord Of The Rings) 1978.mkv
    Формат : Matroska
    Версия формата : Version 4/Version 2
    Размер файла : 9, 36 Гбайт
    Продолжительность : 2 ч. 13 м.
    Общий поток : 10, 0 Мбит/сек
    Название фильма : Властелин колец/The Lord Of The Rings
    Дата кодирования : UTC 2017-11-09 01: 23: 48
    Программа кодирования : mkvmerge v15.0.0 (\'Duel with the Devil\') 64-bit
    Библиотека кодирования : libebml v1.3.5 + libmatroska v1.4.5
    Авторское право : Encoded by Goor80
    Обложка : Yes
    Attachments : cover.jpg
    Released by : Buba5473 for NNM-Club
    Видео
    Идентификатор : 1
    Формат : HEVC
    Формат/Информация : High Efficiency Video Coding
    Профиль формата : Main 10@L4@Main
    Идентификатор кодека : V_MPEGH/ISO/HEVC
    Продолжительность : 2 ч. 13 м.
    Битрейт : 7881 Кбит/сек
    Ширина : 1920 пикселей
    Высота : 1072 пикселя
    Соотношение сторон : 16: 9
    Режим частоты кадров : Постоянный
    Частота кадров : 23, 976 (24000/1001) кадра/сек
    Цветовое пространство : YUV
    Субдискретизация насыщенности : 4: 2: 0
    Битовая глубина : 10 бит
    Бит/(Пиксели*Кадры) : 0.160
    Размер потока : 7, 34 Гбайт (78%)
    Default : Да
    Forced : Нет
    Аудио #1
    Идентификатор : 2
    Формат : DTS
    Формат/Информация : Digital Theater Systems
    Режим : 16
    Параметр Endianness формата : Big
    Идентификатор кодека : A_DTS
    Продолжительность : 2 ч. 13 м.
    Вид битрейта : Постоянный
    Битрейт : 1509 Кбит/сек
    Каналы : 6 каналов
    Расположение каналов : Front: L C R, Side: L R, LFE
    Частота : 48, 0 КГц
    Частота кадров : 93, 750 кадра/сек (512 spf)
    Битовая глубина : 24 бит
    Метод сжатия : С потерями
    Размер потока : 1, 41 Гбайт (15%)
    Заголовок : Перевод: Многоголосый закадровый
    Язык : Russian
    Default : Да
    Forced : Нет
    Аудио #2
    Идентификатор : 3
    Формат : AC-3
    Формат/Информация : Audio Coding 3
    Параметр Endianness формата : Big
    Идентификатор кодека : A_AC3
    Продолжительность : 2 ч. 13 м.
    Вид битрейта : Постоянный
    Битрейт : 640 Кбит/сек
    Каналы : 6 каналов
    Расположение каналов : Front: L C R, Side: L R, LFE
    Частота : 48, 0 КГц
    Частота кадров : 31, 250 кадров/сек (1536 spf)
    Битовая глубина : 16 бит
    Метод сжатия : С потерями
    Размер потока : 610 Мбайт (6%)
    Язык : English
    ServiceKind/String : Complete Main
    Default : Нет
    Forced : Нет
    Текст #1
    Идентификатор : 4
    Формат : PGS
    Режим смешивания : zlib
    Идентификатор кодека : S_HDMV/PGS
    Идентификатор кодека/Информация : Picture based subtitle format used on BDs/HD-DVDs
    Продолжительность : 2 ч. 9 м.
    Битрейт : 21, 1 Кбит/сек
    ElementCount : 2478
    Размер потока : 19, 6 Мбайт (0%)
    Язык : Russian
    Default : Да
    Forced : Нет
    Текст #2
    Идентификатор : 5
    Формат : PGS
    Режим смешивания : zlib
    Идентификатор кодека : S_HDMV/PGS
    Идентификатор кодека/Информация : Picture based subtitle format used on BDs/HD-DVDs
    Продолжительность : 2 ч. 12 м.
    Битрейт : 27, 7 Кбит/сек
    ElementCount : 2666
    Размер потока : 26, 2 Мбайт (0%)
    Язык : English
    Default : Нет
    Forced : Нет
    Меню
    00: 00: 00.000 : en: 00: 00: 00.000
    00: 05: 00.000 : en: 00: 05: 00.000
    00: 10: 00.000 : en: 00: 10: 00.000
    00: 15: 00.000 : en: 00: 15: 00.000
    00: 20: 00.000 : en: 00: 20: 00.000
    00: 25: 00.000 : en: 00: 25: 00.000
    00: 30: 00.000 : en: 00: 30: 00.000
    00: 35: 00.000 : en: 00: 35: 00.000
    00: 40: 00.000 : en: 00: 40: 00.000
    00: 45: 00.000 : en: 00: 45: 00.000
    00: 50: 00.000 : en: 00: 50: 00.000
    00: 55: 00.000 : en: 00: 55: 00.000
    01: 00: 00.000 : en: 01: 00: 00.000
    01: 05: 00.000 : en: 01: 05: 00.000
    01: 10: 00.000 : en: 01: 10: 00.000
    01: 15: 00.000 : en: 01: 15: 00.000
    01: 20: 00.000 : en: 01: 20: 00.000
    01: 25: 00.000 : en: 01: 25: 00.000
    01: 30: 00.000 : en: 01: 30: 00.000
    01: 35: 00.000 : en: 01: 35: 00.000
    01: 40: 00.000 : en: 01: 40: 00.000
    01: 45: 00.000 : en: 01: 45: 00.000
    01: 50: 00.000 : en: 01: 50: 00.000
    01: 55: 00.000 : en: 01: 55: 00.000
    02: 00: 00.000 : en: 02: 00: 00.000
    02: 05: 00.000 : en: 02: 05: 00.000
    02: 10: 00.000 : en: 02: 10: 00.000
    XMP
    Xmp.video.FileName : E: VideoВластелин колец (The Lord Of The Rings) 1978.mkv
    Xmp.video.FileSize : -9.53674e-007
    Xmp.video.MimeType : video/matroska
    Xmp.video.EBMLVersion : 1
    Xmp.video.EBMLReadVersion : 1
    Xmp.video.DocType : matroska
    Xmp.video.DocTypeVersion : 4
    Xmp.video.DocTypeReadVersion : 2
    Xmp.video.TimecodeScale : 0.001
    Xmp.video.MuxingApp : libebml v1.3.5 + libmatroska v1.4.5
    Xmp.video.WritingApp : mkvmerge v15.0.0 (\'Duel with the Devil\') 64-bit
    Xmp.video.Duration : 8000054
    Xmp.video.DateUTC : 531883428
    Xmp.video.Title : Р’РастеРРёРЅ РєРѕРец/The Lord Of The Rings
    Xmp.video.TotalStream : 55
    Xmp.video.TrackLacing : No
    Xmp.video.Codec : V_MPEGH/ISO/HEVC
    Xmp.video.FrameRate : 23.976
    Xmp.video.TrackLang : und
    Xmp.video.Width : 1920
    Xmp.video.Height : 1072
    Xmp.audio.Compressor : A_AC3
    Xmp.audio.DefaultDuration : 32000
    Xmp.audio.TrackLang : rus
    Xmp.video.TrackName : Перевод: РњРЅРѕРіРѕРіРѕРосый закадровый
    Xmp.audio.SampleRate : 48000
    Xmp.audio.BitsPerSample : 24
    Xmp.audio.DefaultOn : No
    Xmp.video.SubTTrackLacing : No
    Xmp.video.SubTCodec : S_HDMV/PGS
    Xmp.video.SubTLang : rus
    Xmp.video.SubTDefaultOn : No
    Xmp.video.AttachFileName : cover.jpg
    Xmp.video.AttachFileMIME : image/jpeg
    Xmp.video.AttachFileUID : 1488943465972471207
    Xmp.video.AspectRatio : 16: 9
    H.265/HEVC (High Efficiency Video Coding) - это новый стандарт кодирования видео.
    *Рипы в фомате HEVC, в настоящее время не поддерживается большинством аппаратных проигрывателей.
    *Для корректного воспроизведения может потребоваться обновление ПО.
    *Стандарт H.265/HEVC является логическим продолжением стандарта H.264/AVC (Advanced Video Coding), и характеризуется более эффективными алгоритмами сжатия, а также поддержкой высокого разрешения вплоть до 8K UHD (8192x4320). Первая версия стандарта H.265 была опубликована в начале 2013 года.
    Любителям решения из коробки - установить последнюю версию на выбор:
    Media Player Classic - Black Edition (MPC-BE)
    VLC media player
    Daum Pot Player
    GOM Media Player
    Любителям WMP и других плееров, использующих по умолчанию для воспроизведения системные кодеки+сплитеры - установить K-Lite Codec Pack версии 10.1.0 и выше.
    Любимые плееры, не использующии по умолчанию для воспроизведения системные кодеки+сплитеры, нужно перенастроить на использование оных.

    Скриншоты для ознакомления



    Все одноименные релизы в Клубе
    Время раздачи: с 11: 00 до 21: 00 по Новосибирску (UTC +7) (до появления первых 3-5 скачавших)


    Онлайн видео Властелин колец



    Властелин колец/The Lord Of The Rings (1978) BDRip [H.265/1080p-LQ] [10-bit]
    загрузка...
    Рейтинг →
     (голосов: 1, оценка 5/5, голосовать можно 1 раз )

    Другие торренты по теме:

  • Властелин колец: Трилогия (The Lord of the Rings: Trilogy) (Extended Cut) (2001 / 2002 / 2003) [MP4 | 960x400] <BDRip H.264>
  • Властелин колец: Трилогия / The Lord of the Rings: Trilogy (2001,2002,2003) BDRip [H.264] [Extended Editions] скачать через торрент бесплатно
  • Властелин колец / The Lord of the Rings (2001,2002,2003) BDRip [1080p] [Extended Edition] [Трилогия] скачать через торрент бесплатно
  • Властелин колец / The Lord of the Rings (2001,2002,2003) BDRip [Extended Edition] [H.264 / 1080p-LQ] [Hi10P]
  • Властелин колец / The Lord of the Rings (2001,2002,2003) BDRip [1080p] [Extended Edition] [Трилогия]
  • Властелин колец: Братство кольца / The Lord of the Rings: The Fellowship of the Ring (2001) BDRip [720p] [Theatrical Editions] [hand made 60fps] скачать через торрент бесплатно
  • Властелин колец: Две крепости / The Lord of the Rings: The Two Towers (2002) 2*DVD5 [BD -> DVD] [Расширенная версия / Extended edition] скачать через торрент бесплатно
  • Властелин колец: Возвращение короля / The Lord of the Rings: The Return of the King (2003) 2*DVD5 [BD -> DVD] [Расширенная версия / Extended edition] скачать через торрент бесплатно


    • Комментарии (0):

      Информация

      Информация

        Посетители, находящиеся в группе Гости, не могут оставлять комментарии в данной новости.

        ↓ Меню




        ↓ Опрос

        Вы добавили сайт в закладки?
        Да
        Нет


        Top 10 за месяц (Мультфильмы)