.
Авторизация | Регистрация
Хочешь лучшие торренты? Добавь свой email!
Добавить

Торрент скачать бесплатно

» » Маленький вампир / The Little Vampire 3D (2017) WEB-DL [H.264 / 1080p-LQ] [EN] торрент скачать бесплатно




    Маленький вампир / The Little Vampire 3D (2017) WEB-DL [H.264 / 1080p-LQ] [EN] торрент скачать бесплатно

    Опубликовал: Админ | Дата: 23-11-2017, 05:00 | Просмотров: 0

    Производство: Нидерланды, Германия, Дания, Великобритания/A. Film, Ambient Entertainment GmbH, Cool Beans
    Жанр: Мультфильм, Приключения, Комедия
    Режиссер: Рихард Клаус, Карстен Килерих
    Персонажи: Расмус Хардайкер, Эми Сэвилл, Джим Картер, Джозеф Клоска, Фиби Гиврон-Тейлор, Тим Пиготт-Смит, Элис Крайдж, Джулия Родс, Кевин Отто, Дайан Уилсон ...

    Описание

    Это история о маленьком вампире Рудольфе — тринадцатилетнем мальчике, чью семью преследует злостный охотник на вампиров. Однажды Рудольф встречает обычного мальчика, Тони, своего сверстника. Тони без ума от старинных замков и страшных историй про вампиров, поэтому он не раздумывая предлагает Рудольфу свою помощь. Теперь, эту парочку, ждут веселые и невероятные приключения и противостояние с охотником на вампиров.

    Дата мировой премьеры: 1 октября 2017, ...
    Дата российской премьеры: 9 ноября 2017, Наше Кино
    Продолжительность: 01: 22: 09
    Качество видео: WEB-DL 1080p
    Перевод: Отсутствует
    Язык озвучки: Английский
    Субтитры: Oтсутствуют
    Видео: AVC, 1912x800 (2.35: 1), 24.000 fps, 4 429 Kbps (0.121 bit/pixel)
    Аудио: AC-3, 48.0 KHz, 6 ch, 384 Kbps, CBR (English)
    General
    Complete name : The Little Vampire.2017.1080p.WEB-DL.H264.AC3-EVO.mkv
    Format : Matroska
    Format version : Version 4/Version 2
    File size : 2.82 GiB
    Duration : 1 h 22 min
    Overall bit rate : 4 911 kb/s
    Movie name : EVO
    Encoded date : UTC 2017-11-21 11: 58: 25
    Writing application : mkvmerge v6.7.0 (\'Back to the Ground\') 64bit built on Jan 8 2014 15: 10: 52
    Writing library : libebml v1.3.0 + libmatroska v1.4.1
    Video
    ID : 2
    Format : AVC
    Format/Info : Advanced Video Codec
    Format profile : High@L4
    Format settings : CABAC/5 Ref Frames
    Format settings, CABAC : Yes
    Format settings, ReFrames : 5 frames
    Codec ID : V_MPEG4/ISO/AVC
    Duration : 1 h 22 min
    Bit rate : 4 429 kb/s
    Width : 1 912 pixels
    Height : 800 pixels
    Display aspect ratio : 2.40: 1
    Frame rate mode : Constant
    Frame rate : 24.000 FPS
    Color space : YUV
    Chroma subsampling : 4: 2: 0
    Bit depth : 8 bits
    Scan type : Progressive
    Bits/(Pixel*Frame) : 0.121
    Stream size : 2.54 GiB (90%)
    Language : English
    Default : Yes
    Forced : No
    Color range : Limited
    Color primaries : BT.709
    Transfer characteristics : BT.709
    Matrix coefficients : BT.709
    Audio
    ID : 1
    Format : AC-3
    Format/Info : Audio Coding 3
    Codec ID : A_AC3
    Duration : 1 h 22 min
    Bit rate mode : Constant
    Bit rate : 384 kb/s
    Channel(s) : 6 channels
    Channel positions : Front: L C R, Side: L R, LFE
    Sampling rate : 48.0 kHz
    Frame rate : 31.250 FPS (1536 SPF)
    Bit depth : 16 bits
    Compression mode : Lossy
    Stream size : 226 MiB (8%)
    Language : English
    Service kind : Complete Main
    Default : Yes
    Forced : No
    Menu
    00: 00: 00.000 : en: 1
    00: 04: 18.000 : en: 2
    00: 13: 01.000 : en: 3
    00: 25: 54.000 : en: 4
    00: 35: 25.000 : en: 5
    00: 48: 31.000 : en: 6
    00: 57: 15.000 : en: 7
    01: 10: 35.000 : en: 8
    01: 18: 29.000 : en: 9

    Скриншоты для ознакомления




    Все одноименные релизы в Клубе
    Время раздачи: 24/7 (круглосуточно) (до появления первых 3-5 скачавших)


    Онлайн видео Маленький вампир



    Маленький вампир/The Little Vampire 3D (2017) WEB-DL [H.264/1080p-LQ] [EN]
    загрузка...
    Рейтинг →
     (голосов: 1, оценка 4/5, голосовать можно 1 раз )

    Другие торренты по теме:

  • Маленький вампир / The Little Vampire 3D (2017) WEB-DL [H.264 / 1080p-LQ]


    • Комментарии (0):

      Информация

      Информация

        Посетители, находящиеся в группе Гости, не могут оставлять комментарии в данной новости.

        ↓ Меню




        ↓ Опрос

        Вы добавили сайт в закладки?
        Да
        Нет


        Top 10 за месяц (Мультфильмы)