.
Авторизация | Регистрация
Хочешь лучшие торренты? Добавь свой email!
Добавить

Торрент скачать бесплатно

» » Школа монстров: Под напряжением / Monster High: Electrified (2017) SATRip [H.264] [UKR] торрент скачать бесплатно




    Школа монстров: Под напряжением / Monster High: Electrified (2017) SATRip [H.264] [UKR] торрент скачать бесплатно

    Опубликовал: Админ | Дата: 22-11-2017, 05:00 | Просмотров: 0

    Производство: США, Universal
    Жанр: Детский, приключения, полнометражный
    Режиссер: Джан Фалкенштейн, Рене Вейю
    Персонажи: Кэти Таунсенд, Деби Дерриберри, Кассандра Моррис, Майкл Сорич, Кристина Милиция, Джонкуил Гуд, Ларисса Галлахер, Ивэн Смит, Селеста Хендерсон

    Описание

    Любимые герои из школы монстров вновь возвращаются на экран, только на этот раз в совершенно другом образе. Клодин вместе со своими подругами решила открыть салон красоты, который будет обслуживать как монстров, так и простых людей. Фрэнки долгое время искала подходящее помещение, которым в итоге стала электростанция, расположенная недалеко от города. Когда все было практически готово, подруги выложили в интернет объявление, которое разлетелось по всей сети. В итоге наведаться в салон решило огромное количество жителей, которые с радостью приняли новость о его открытии. И только Моника не довольна таким развитием событий, поскольку она терпеть не может простых людей. Именно поэтому ей пришла в голову мысль сорвать открытие салона...

    Релиз от: sergiyko
    Продолжительность: 01: 05: 41
    Качество видео: SATRip
    Перевод: Отсутствует
    Язык озвучки: украинский (дубляж ТК ТЕТ)
    Субтитры: отсутствуют
    Видео: AVC/H.264, 720 х 408, ~1200 Kbps
    Аудио: AC3, 2 ch, 192 Kbps

    General
    Unique ID : 244838262403795047109483382626755666939 (0xB832225500661CF88889654FF651E3FB)
    Complete name : D: TorrentsMULTMonster.High.Electrified.2017.SATRip.mkv
    Format : Matroska
    Format version : Version 4/Version 2
    File size : 667 MiB
    Duration : 1 h 5 min
    Overall bit rate : 1 420 kb/s
    Movie name : Monster High.Electrified SATRip by sergiyko
    Encoded date : UTC 2017-11-20 20: 23: 45
    Writing application : mkvmerge v18.0.0 (\'Apricity\') 64-bit
    Writing library : libebml v1.3.5 + libmatroska v1.4.8
    Cover : Yes
    Attachments : cover.jpeg
    Video
    ID : 1
    Format : AVC
    Format/Info : Advanced Video Codec
    Format profile : High@L3.1
    Format settings, CABAC : Yes
    Format settings, RefFrames : 10 frames
    Codec ID : V_MPEG4/ISO/AVC
    Duration : 1 h 5 min
    Bit rate : 1 226 kb/s
    Width : 720 pixels
    Height : 408 pixels
    Display aspect ratio : 16: 9
    Frame rate mode : Constant
    Frame rate : 25.000 FPS
    Color space : YUV
    Chroma subsampling : 4: 2: 0
    Bit depth : 8 bits
    Scan type : Progressive
    Bits/(Pixel*Frame) : 0.167
    Stream size : 576 MiB (86%)
    Title : Школа монстрів. Електрично
    Writing library : x264 core 152 r2851 ba24899
    Encoding settings : cabac=1/ref=10/deblock=1: 0: 0/analyse=0x3: 0x113/me=umh/subme=9/psy=1/psy_rd=0.40: 0.00/mixed_ref=1/me_range=16/chroma_me=1/trellis=2/8x8dct=1/cqm=0/deadzone=21, 11/fast_pskip=1/chroma_qp_offset=-2/threads=13/lookahead_threads=1/sliced_threads=0/nr=0/decimate=1/interlaced=0/bluray_compat=0/constrained_intra=0/bframes=5/b_pyramid=2/b_adapt=2/b_bias=0/direct=3/weightb=1/open_gop=0/weightp=2/keyint=250/keyint_min=25/scenecut=40/intra_refresh=0/rc_lookahead=60/rc=crf/mbtree=1/crf=19.0/qcomp=0.70/qpmin=0/qpmax=69/qpstep=4/vbv_maxrate=14000/vbv_bufsize=14000/crf_max=0.0/nal_hrd=none/filler=0/ip_ratio=1.40/aq=1: 0.60
    Language : English
    Default : Yes
    Forced : No
    Audio
    ID : 2
    Format : AC-3
    Format/Info : Audio Coding 3
    Format settings, Endianness : Big
    Codec ID : A_AC3
    Duration : 1 h 5 min
    Bit rate mode : Constant
    Bit rate : 192 kb/s
    Channel(s) : 2 channels
    Channel positions : Front: L R
    Sampling rate : 48.0 kHz
    Frame rate : 31.250 FPS (1536 SPF)
    Bit depth : 16 bits
    Compression mode : Lossy
    Stream size : 90.2 MiB (14%)
    Title : DUB AC3 | ТЕТ
    Language : Ukrainian
    Service kind : Complete Main
    Default : Yes
    Forced : No

    Скриншоты для ознакомления



    Все одноименные релизы в Клубе
    Время раздачи: Пн-Пт с 18: 00 до 24: 00 (до появления первых 3-5 скачавших)


    Онлайн видео Школа монстров: Под напряжением



    Школа монстров: Под напряжением/Monster High: Electrified (2017) SATRip [H.264] [UKR]
    загрузка...
    Рейтинг →
     (голосов: 1, оценка 4/5, голосовать можно 1 раз )

    Другие торренты по теме:

  • Школа Монстров: Добро пожаловать в Школу монстров / Monster High: Welcome to Monster High (2016) SATRip [H.264]
  • Школа монстров: Добро пожаловать в школу монстров / Monster High: Welcome to Monster High (2016) HDRip [576p] iPad
  • Школа монстров: Монстрические мутации / Monster High: Freaky Fusion (2014) BDRip скачать через торрент бесплатно
  • Школа монстров: Монстрические мутации / Monster High: Freaky Fusion (2014) BDRip [1080p]
  • Подшивка журналов | Monster High / Школа Монстров [23 выпуска] (2012-2014) [PDF] [Обновлено 16.12.2014] скачать через торрент бесплатно
  • Школа Монстров: Бу-Йорк, Бу-Йорк / Monster High: Boo York, Boo York (2015) SATRip скачать через торрент бесплатно
  • Школа Монстров: Бу-Йорк, Бу-Йорк / Monster High: Boo York, Boo York (2015) BDRip [H.264 / 1080p-LQ] скачать через торрент бесплатно
  • Школа Монстров: Большой Кошмарный риф / Monster High: Great Scarrier Reef (2016) DVB [H.264]


    • Комментарии (0):

      Информация

      Информация

        Посетители, находящиеся в группе Гости, не могут оставлять комментарии в данной новости.

        ↓ Меню




        ↓ Опрос

        Вы добавили сайт в закладки?
        Да
        Нет


        Top 10 за месяц (Мультфильмы)