.
Авторизация | Регистрация
Хочешь лучшие торренты? Добавь свой email!
Добавить

Торрент скачать бесплатно

» » Тайная жизнь домашних животных / The Secret Life of Pets (2016) UHD BDRemux [H.265 / 2160p] [4K, HDR, 10-bit] торрент скачать бесплатно




    Тайная жизнь домашних животных / The Secret Life of Pets (2016) UHD BDRemux [H.265 / 2160p] [4K, HDR, 10-bit] торрент скачать бесплатно

    Опубликовал: Админ | Дата: 22-11-2017, 05:00 | Просмотров: 0

    Производство: Япония, США/Dentsu, Fuji Television Network Inc., Universal Pictures
    Жанр: мультфильм, комедия, приключения, семейный
    Режиссер: Ярроу Чейни, Крис Рено

    Актеры
    Луис С.К., Эрик Стоунстрит, Кевин Харт, Дженни Слейт, Элли Кемпер, Альберт Брукс, Лэйк Белл, Дэна Карви, Хэннибал Бёресс, Бобби Мойнахан

    Описание

    Что делают домашние животные пока хозяева пропадают на работе? С тоской смотрят в окно? Смиренно дремлют на коврике у двери? Как бы не так. Они ведут свою тайную жизнь.

    Возраст: 6+ (зрителям, достигшим 6 лет)
    Рейтинг MPAA: PG (рекомендуется присутствие родителей)
    Дата мировой премьеры: 16 июня 2016
    Дата российской премьеры: 18 августа 2016, UPI 3D

    Релиз от: TERMiNAL, ExKinoRay
    Продолжительность: 01: 26: 27
    Качество: UHD BDRemux (HDR)
    Перевод: Дублированный (Лицензия BD CEE)
    Субтитры: Русские (forced, full), английские
    Видео: HEVC/H.265, 3840x2160p, (16: 9), 77.9 Mb/s, 23.976 fps
    Аудио: AC3, 6 ch, 640 kbps - Русский
    Аудио: TrueHD-Atmos, 8 ch, 4875 kbps - Английский
    Аудио: AC3, 6 ch, 640 kbps - Английский
    Исходный диск на Blu-ray.com
    Просмотр 4K HDR-контента на ПК
    General
    Unique ID : 238534634657801749601461469053995425214 (0xB374197D29D91DBEB3651D0BDB1F9DBE)
    Complete name : G: VideoSSDThe.Secret.Life.of.Pets.2016.BDREMUX.2160p.4K.UltraHD.HEVC.HDR.ExKinoRay.mkv
    Format : Matroska
    Format version : Version 4/Version 2
    File size : 50.8 GiB
    Duration : 1 h 26 min
    Overall bit rate mode : Variable
    Overall bit rate : 84.1 Mb/s
    Encoded date : UTC 2017-10-27 03: 15: 21
    Writing application : mkvmerge v17.0.0 (\'Be Ur Friend\') 64-bit
    Writing library : libebml v1.3.5 + libmatroska v1.4.8
    Video
    ID : 1
    Format : HEVC
    Format/Info : High Efficiency Video Coding
    Format profile : Main10@L5.1@High
    Codec ID : V_MPEGH/ISO/HEVC
    Duration : 1 h 26 min
    Bit rate : 77.9 Mb/s
    Width : 3 840 pixels
    Height : 2 160 pixels
    Display aspect ratio : 16: 9
    Frame rate mode : Constant
    Frame rate : 23.976 (24000/1001) FPS
    Color space : YUV
    Chroma subsampling : 4: 2: 0 (Type 2)
    Bit depth : 10 bits
    Bits/(Pixel*Frame) : 0.392
    Stream size : 47.0 GiB (93%)
    Writing library : ATEME Titan File 3.7.6 (4.7.6.101)
    Language : English
    Default : Yes
    Forced : No
    Color range : Limited
    Color primaries : BT.2020
    Transfer characteristics : PQ
    Matrix coefficients : BT.2020 non-constant
    Mastering display color pri : R: x=0.680000 y=0.320000, G: x=0.265000 y=0.690000, B: x=0.150000 y=0.060000, White point: x=0.312700 y=0.329000
    Mastering display luminance : min: 0.0050 cd/m2, max: 1000.0000 cd/m2
    Maximum Content Light Level : 934 cd/m2
    Maximum Frame-Average Light : 356 cd/m2
    Audio #1
    ID : 2
    Format : AC-3
    Format/Info : Audio Coding 3
    Format settings, Endianness : Big
    Codec ID : A_AC3
    Duration : 1 h 26 min
    Bit rate mode : Constant
    Bit rate : 640 kb/s
    Channel(s) : 6 channels
    Channel positions : Front: L C R, Side: L R, LFE
    Sampling rate : 48.0 kHz
    Frame rate : 31.250 FPS (1536 SPF)
    Bit depth : 16 bits
    Compression mode : Lossy
    Stream size : 396 MiB (1%)
    Title : Dub License
    Language : Russian
    Service kind : Complete Main
    Default : Yes
    Forced : No
    Audio #2
    ID : 3
    Format : TrueHD
    Format profile : TrueHD+Atmos/TrueHD
    Codec ID : A_TRUEHD
    Duration : 1 h 26 min
    Bit rate mode : Variable
    Bit rate : 4 875 kb/s
    Maximum bit rate : 7 452 kb/s
    Channel(s) : Object Based/8 channels
    Channel positions : Object Based/Front: L C R, Side: L R, Back: L R, LFE
    Sampling rate : /48.0 kHz
    Frame rate : 1 200.000 FPS (40 SPF)
    Compression mode : Lossless
    Stream size : 2.94 GiB (6%)
    Title : Original
    Language : English
    Default : No
    Forced : No
    Audio #3
    ID : 4
    Format : AC-3
    Format/Info : Audio Coding 3
    Format settings, Endianness : Big
    Codec ID : A_AC3
    Duration : 1 h 26 min
    Bit rate mode : Constant
    Bit rate : 640 kb/s
    Channel(s) : 6 channels
    Channel positions : Front: L C R, Side: L R, LFE
    Sampling rate : 48.0 kHz
    Frame rate : 31.250 FPS (1536 SPF)
    Bit depth : 16 bits
    Compression mode : Lossy
    Stream size : 396 MiB (1%)
    Language : English
    Service kind : Complete Main
    Default : No
    Forced : No
    Text #1
    ID : 5
    Format : UTF-8
    Codec ID : S_TEXT/UTF8
    Codec ID/Info : UTF-8 Plain Text
    Duration : 1 h 18 min
    Bit rate : 1 b/s
    Count of elements : 18
    Stream size : 709 Bytes (0%)
    Title : Forced
    Language : Russian
    Default : Yes
    Forced : No
    Text #2
    ID : 6
    Format : UTF-8
    Codec ID : S_TEXT/UTF8
    Codec ID/Info : UTF-8 Plain Text
    Duration : 1 h 24 min
    Bit rate : 66 b/s
    Count of elements : 1270
    Stream size : 41.5 KiB (0%)
    Title : Full
    Language : Russian
    Default : No
    Forced : No
    Text #3
    ID : 7
    Format : UTF-8
    Codec ID : S_TEXT/UTF8
    Codec ID/Info : UTF-8 Plain Text
    Duration : 1 h 25 min
    Bit rate : 50 b/s
    Count of elements : 1314
    Stream size : 31.5 KiB (0%)
    Title : Full
    Language : English
    Default : No
    Forced : No
    Text #4
    ID : 8
    Format : UTF-8
    Codec ID : S_TEXT/UTF8
    Codec ID/Info : UTF-8 Plain Text
    Duration : 1 h 26 min
    Bit rate : 61 b/s
    Count of elements : 1685
    Stream size : 39.0 KiB (0%)
    Title : SDH
    Language : English
    Default : No
    Forced : No
    Menu
    00: 00: 00.000 : en: 00: 00: 00.000
    00: 05: 05.847 : en: 00: 05: 05.847
    00: 09: 24.063 : en: 00: 09: 24.063
    00: 13: 18.840 : en: 00: 13: 18.840
    00: 18: 03.666 : en: 00: 18: 03.666
    00: 22: 14.458 : en: 00: 22: 14.458
    00: 28: 51.855 : en: 00: 28: 51.855
    00: 32: 54.848 : en: 00: 32: 54.848
    00: 36: 55.839 : en: 00: 36: 55.839
    00: 42: 27.295 : en: 00: 42: 27.295
    00: 44: 46.767 : en: 00: 44: 46.767
    00: 50: 21.227 : en: 00: 50: 21.227
    00: 54: 45.407 : en: 00: 54: 45.407
    00: 59: 33.987 : en: 00: 59: 33.987
    01: 02: 36.544 : en: 01: 02: 36.544
    01: 07: 12.362 : en: 01: 07: 12.362
    01: 13: 06.841 : en: 01: 13: 06.841
    01: 16: 04.602 : en: 01: 16: 04.602
    01: 18: 48.057 : en: 01: 18: 48.057
    01: 19: 58.836 : en: 01: 19: 58.836
    YouTube

    Скриншоты для ознакомления


    Релизы мультфильма Тайная жизнь домашних животных/The Secret Life of Pets на NNM Club
    Время раздачи: с 9: 00 до 23: 00


    Онлайн видео Тайная жизнь домашних животных



    Тайная жизнь домашних животных/The Secret Life of Pets (2016) UHD BDRemux [H.265/2160p] [4K, HDR, 10-bit]
    загрузка...
    Рейтинг →
     (голосов: 1, оценка 4/5, голосовать можно 1 раз )

    Другие торренты по теме:

  • BBC: Магия грибов (Тайная жизнь грибов) / The Magic of Mushrooms (2014) HDTVRip [H.264 / 720p] скачать через торрент бесплатно
  • Тайная жизнь пчёл / The Secret Life of Bees (2008) HDTV [H.264 / 1080i] скачать через торрент бесплатно
  • Animal Planet. Тайная жизнь домашних питомцев / Secret life of pets (2014) HDTVRip [Серия 1-8 из 8] скачать через торрент бесплатно
  • Тайная жизнь миллионеров (06.07.2015) SATRip скачать через торрент бесплатно
  • Тайная жизнь миллионеров (07.07.2015) SATRip скачать через торрент бесплатно
  • Тайная жизнь миллионеров (09.07.2015) SATRip скачать через торрент бесплатно
  • Тайная жизнь бобров (Заклинатели бобров) / The Beaver Whisperers (2013) HDRip 576p скачать через торрент бесплатно
  • Хуан Санчес, Аксель Гильден | Тайная жизнь Фиделя Кастро. Шокирующие откровения личного телохранителя кубинского лидера (2015) [FB2] скачать через торрент бесплатно


    • Комментарии (0):

      Информация

      Информация

        Посетители, находящиеся в группе Гости, не могут оставлять комментарии в данной новости.

        ↓ Меню




        ↓ Опрос

        Вы добавили сайт в закладки?
        Да
        Нет


        Top 10 за месяц (Мультфильмы)