.
Авторизация | Регистрация
Хочешь лучшие торренты? Добавь свой email!
Добавить

Торрент скачать бесплатно

» » Шиммер и Шайн / Shimmer and Shine (2015) WEB-DL [H.264 / 720p-LQ] (Сезон 1-2, 40 серий из 40) [UKR, EN] торрент скачать бесплатно




    Шиммер и Шайн / Shimmer and Shine (2015) WEB-DL [H.264 / 720p-LQ] (Сезон 1-2, 40 серий из 40) [UKR, EN] торрент скачать бесплатно

    Опубликовал: Админ | Дата: 21-11-2017, 05:00 | Просмотров: 1

    Производство: США
    Жанр: Детский, Приключения
    Режиссер: Мэтт Энгстром, Фред Осмонд, Скотт О’Брайэн

    Описание

    Джинны или исполнители желаний — это мечта любого человека, независимо от возраста или пола. Только исполняется эта мечта совершенно по-разному. Вот девочке Лие повезло заполучить не одного, а двух джиннов с огромным магическим потенциалом. Это сестры-близнецы Шиммер и Шайн. Но джинны не всегда хорошо понимают желания своей юной повелительницы, из-за чего та не раз и не два оказывается в достаточно неловких, а порою просто забавных ситуациях. Но близняшки так поступают не со зла, а просто от незнания современных реалий. От долгого сидения в лампе мудрость не прирастает. Но Лия никогда на них не обижается, ведь они же еще ее хорошие друзья. А с друзьями из-за пустяковых происшествий никто не ссорится, особенно, если эти друзья — волшебные.

    Релиз от: sergiyko
    Продолжительность: 00: 22: 30 серия
    Качество видео: WEB-DL
    Перевод: Отсутствует
    Язык озвучки: украинский (дубляж ТК Плюс Плюс), английский
    Субтитры: английские
    Видео: AVC/H.264, 1280х720, ~3400 Kbps
    Аудио 1: AC3, 2 ch, 192 Kbps - украинский
    Аудио 2: AAC, 2 ch, 96 Kbps - английский

    General
    Unique ID : 193951556102232633086456827130892983374 (0x91E9B601DA71B3BD9840AE0FF9DB1C4E)
    Complete name : E: MULTFILMSShimmer and Shine 720p WEBRipShimmer and Shine S01 720p WEBRipShimmer.and.Shine.S01E08.Lights.Cameras.Genies.720p.WEBRip.Ukr.Eng.mkv
    Format : Matroska
    Format version : Version 4/Version 2
    File size : 593 MiB
    Duration : 22 min 30 s
    Overall bit rate mode : Variable
    Overall bit rate : 3 682 kb/s
    Movie name : Shimmer and Shine S01 720p WEBRip by sergiyko
    Encoded date : UTC 2017-09-25 09: 37: 20
    Writing application : mkvmerge v15.0.0 (\'Duel with the Devil\') 64-bit
    Writing library : libebml v1.3.5 + libmatroska v1.4.5
    Video
    ID : 1
    Format : AVC
    Format/Info : Advanced Video Codec
    Format profile : Main@L3.2
    Format settings, CABAC : Yes
    Format settings, RefFrames : 4 frames
    Codec ID : V_MPEG4/ISO/AVC
    Duration : 22 min 30 s
    Bit rate mode : Variable
    Bit rate : 3 394 kb/s
    Maximum bit rate : 6 808 kb/s
    Width : 1 280 pixels
    Height : 720 pixels
    Display aspect ratio : 16: 9
    Frame rate mode : Constant
    Frame rate : 23.976 (23976/1000) FPS
    Original frame rate : 23.976 (24000/1001) FPS
    Color space : YUV
    Chroma subsampling : 4: 2: 0
    Bit depth : 8 bits
    Scan type : Progressive
    Bits/(Pixel*Frame) : 0.154
    Stream size : 546 MiB (92%)
    Title : S01E08 Lights Cameras Genies
    Language : English
    Default : Yes
    Forced : No
    Color range : Limited
    Audio #1
    ID : 2
    Format : AC-3
    Format/Info : Audio Coding 3
    Format settings, Endianness : Big
    Codec ID : A_AC3
    Duration : 22 min 30 s
    Bit rate mode : Constant
    Bit rate : 192 kb/s
    Channel(s) : 2 channels
    Channel positions : Front: L R
    Sampling rate : 48.0 kHz
    Frame rate : 31.250 FPS (1536 SPF)
    Bit depth : 16 bits
    Compression mode : Lossy
    Delay relative to video : -42 ms
    Stream size : 30.9 MiB (5%)
    Title : DUB AC3 | ПлюсПлюс
    Language : Ukrainian
    Service kind : Complete Main
    Default : Yes
    Forced : Yes
    Audio #2
    ID : 3
    Format : AAC
    Format/Info : Advanced Audio Codec
    Format profile : HE-AAC/LC
    Codec ID : A_AAC
    Duration : 22 min 30 s
    Bit rate : 96.0 kb/s
    Channel(s) : 2 channels
    Channel positions : Front: L R
    Sampling rate : 48.0 kHz/24.0 kHz
    Frame rate : 23.438 FPS (1024 SPF)
    Compression mode : Lossy
    Delay relative to video : -42 ms
    Stream size : 15.2 MiB (3%)
    Title : Original
    Language : English
    Default : No
    Forced : No
    Text
    ID : 4
    Format : UTF-8
    Codec ID : S_TEXT/UTF8
    Codec ID/Info : UTF-8 Plain Text
    Duration : 21 min 55 s
    Bit rate : 119 b/s
    Count of elements : 546
    Stream size : 19.2 KiB (0%)
    Language : English
    Default : No
    Forced : No


    Онлайн видео Шиммер и Шайн



    Шиммер и Шайн/Shimmer and Shine (2015) WEB-DL [H.264/720p-LQ] (Сезон 1-2, 40 серий из 40) [UKR, EN]
    загрузка...
    Рейтинг →
     (голосов: 1, оценка 3/5, голосовать можно 1 раз )

    Другие торренты по теме:



      Комментарии (0):

      Информация

      Информация

        Посетители, находящиеся в группе Гости, не могут оставлять комментарии в данной новости.

        ↓ Меню




        ↓ Опрос

        Вы добавили сайт в закладки?
        Да
        Нет


        Top 10 за месяц (Мультфильмы)