.
Авторизация | Регистрация
Хочешь лучшие торренты? Добавь свой email!
Добавить

Торрент скачать бесплатно

» » Южный Парк / South Park (2017) WEB-DL [H.264 / 1080p-LQ] (21 сезон, серия 01-07 из 10) торрент скачать бесплатно




    Южный Парк / South Park (2017) WEB-DL [H.264 / 1080p-LQ] (21 сезон, серия 01-07 из 10) торрент скачать бесплатно

    Опубликовал: Админ | Дата: 20-11-2017, 05:00 | Просмотров: 0

    Производство: США
    Жанр: Для взрослых, Комедия
    Режиссер: Трей Паркер, Эрик Сточ, Мэтт Стоун

    Актеры
    Трей Паркер, Мэтт Стоун, Мона Маршалл, Эйприл Стюарт, Айзек Хейз, Элиза Шнайдер, Эдриан Бирд, Мэри Кэй Бергман, Дженнифер Хауэлл, Кайл Маккаллок и др.

    Описание

    Южный Парк/South Park — американский мультсериал, созданный Мэттом Стоуном и Треем Паркером. Иногда название переводится также как Саут-Парк или Саус-Парк. Выпускается кабельным телеканалом Comedy Central с 1997 года. Основу сюжета составляют приключения четырёх мальчиков и их друзей, живущих в маленьком городке Саут-Парк, штат Колорадо. Сериал высмеивает недостатки американской культуры и текущие мировые события, а также подвергает критике множество глубоких убеждений и табу посредством пародии и чёрного юмора. Южный Парк выходит поздно вечером и позиционируется как мультфильм для взрослых.

    Возраст: 18+ (зрителям, достигшим 18 лет. запрещено для детей)
    Рейтинг MPAA: R (лицам до 17 лет обязательно присутствие взрослого)
    Релиз от: Khoren2013, Bugman
    Продолжительность: 07x 00: 22: 10
    Качество видео: WEB-DL H.264/1080p-LQ
    Перевод: Двухголосый
    Озвучка: Paramount Comedy, Кубик в кубе
    Субтитры: Английские
    Реклама: Вырезана
    Присутствует ненормативная лексика
    Видео: AVC/H.264, 1916x1076, ~~5000 kbps
    Аудио#1: AC3, 2 ch, ~192 kbps, CBR (DVO Paramount Comedy)
    Аудио#2: AC3, 2 ch, ~224 kbps, CBR (DVO Кубик в кубе)
    Аудио#3: AAC, 2 ch, ~160 kbps (Eng)
    01.White People Renovating Houses
    02. Put It Down
    03. Holiday Special
    04. Franchise Prequel
    05. Hummels Heroin
    06. Sons A Witches
    07. Doubling Down
    08. Moss Piglets
    09.
    10.
    Код: выделить все

    General
    Complete name : South.Park.S21E05.Hummels.and.Heroin.1080p.WEB-DL.H.264.mkv
    Format : Matroska
    Format version : Version 2
    File size : 913 MiB
    Duration : 22 min 10 s
    Overall bit rate : 5 755 kb/s
    Encoded date : UTC 2017-11-19 10:28:08
    Writing application : mkvmerge v7.8.0 (\'River Man\') 32bit built on Apr 3 2015 12:11:22
    Writing library : libebml v1.3.1 + libmatroska v1.4.2
    Cover : Yes
    Attachments : cover.south.jpg
    Video
    ID : 1
    Format : AVC
    Format/Info : Advanced Video Codec
    Format profile : High@L4
    Format settings, CABAC : Yes
    Format settings, RefFrames : 4 frames
    Codec ID : V_MPEG4/ISO/AVC
    Duration : 22 min 10 s
    Width : 1 916 pixels
    Height : 1 076 pixels
    Display aspect ratio : 16:9
    Frame rate mode : Constant
    Frame rate : 23.976 (24000/1001) FPS
    Color space : YUV
    Chroma subsampling : 4:2:0
    Bit depth : 8 bits
    Scan type : Progressive
    Language : English
    Default : Yes
    Forced : No
    Color range : Limited
    Color primaries : BT.709
    Transfer characteristics : BT.709
    Matrix coefficients : BT.709
    Audio #1
    ID : 2
    Format : AC-3
    Format/Info : Audio Coding 3
    Format settings, Endianness : Big
    Codec ID : A_AC3
    Duration : 22 min 10 s
    Bit rate mode : Constant
    Bit rate : 192 kb/s
    Channel(s) : 2 channels
    Channel positions : Front: L R
    Sampling rate : 48.0 kHz
    Frame rate : 31.250 FPS (1536 SPF)
    Bit depth : 16 bits
    Compression mode : Lossy
    Stream size : 30.5 MiB (3%)
    Title : DVO Paramount Comedy
    Language : Russian
    Service kind : Complete Main
    Default : Yes
    Forced : No
    Audio #2
    ID : 3
    Format : AC-3
    Format/Info : Audio Coding 3
    Format settings, Endianness : Big
    Codec ID : A_AC3
    Duration : 22 min 10 s
    Bit rate mode : Constant
    Bit rate : 224 kb/s
    Channel(s) : 2 channels
    Channel positions : Front: L R
    Sampling rate : 48.0 kHz
    Frame rate : 31.250 FPS (1536 SPF)
    Bit depth : 16 bits
    Compression mode : Lossy
    Stream size : 35.5 MiB (4%)
    Title : DVO Кубик в кубе
    Language : Russian
    Service kind : Complete Main
    Default : No
    Forced : No
    Audio #3
    ID : 4
    Format : AAC
    Format/Info : Advanced Audio Codec
    Format profile : LC
    Codec ID : A_AAC
    Duration : 22 min 10 s
    Channel(s) : 2 channels
    Channel positions : Front: L R
    Sampling rate : 48.0 kHz
    Frame rate : 46.875 FPS (1024 SPF)
    Compression mode : Lossy
    Language : English
    Default : No
    Forced : No
    Text
    ID : 5
    Format : UTF-8
    Codec ID : S_TEXT/UTF8
    Codec ID/Info : UTF-8 Plain Text
    Language : English
    Default : No
    Forced : No

    Скриншоты для ознакомления


    Все одноименные релизы в Клубе

    Время раздачи: 24/7


    Онлайн видео Южный Парк



    Южный Парк/South Park (2017) WEB-DL [H.264/1080p-LQ] (21 сезон, серия 01-07 из 10)
    загрузка...
    Рейтинг →
     (голосов: 1, оценка 5/5, голосовать можно 1 раз )

    Другие торренты по теме:

  • Южный Парк / South Park (1997-2010) DVDRip / WebDL (17 сезонов + самые первые серии + полнометражный мультфильм) скачать через торрент бесплатно
  • Южный парк / South park (2013) HDRip [Сезон 17, 10 серий из 10] (Comedy central) скачать через торрент бесплатно
  • Южный парк / South park (2014) HDRip [Сезон 18, 10 серий из 10] (Paramount comedy)
  • Южный парк - сломанный, но целый / South Park - The Fractured but Whole (2016) HDRip [H.264 / 720p-LQ] [Трейлер] скачать через торрент бесплатно
  • Южный Парк / South Park (2015) WEB-DL [H.264 / 720p] (19 сезон, серия 01 из 10) [DVO Кубик в Кубе] скачать через торрент бесплатно
  • Южный Парк / South Park (2015) WEB-DLRip (19 сезон, серия 01 из 10) [DVO Кубик в Кубе] скачать через торрент бесплатно
  • Южный Парк / South Park (2015) HDTVRip [H.264 / 720p-LQ] (19 сезон, серия 01-10 из 10) Jaskier скачать через торрент бесплатно
  • Южный Парк: Полная Коллекция / South Park: Complete Colection (1997-2015) WEB-DLRip [H.264] (сезон 1-19, серии 1-267 из 267) (MTV|Кубик в Кубе) [MP4|1080p] [Rus / Eng Sub]


    • Комментарии (0):

      Информация

      Информация

        Посетители, находящиеся в группе Гости, не могут оставлять комментарии в данной новости.

        ↓ Меню




        ↓ Опрос

        Вы добавили сайт в закладки?
        Да
        Нет


        Top 10 за месяц (Мультфильмы)