.
Авторизация | Регистрация
Хочешь лучшие торренты? Добавь свой email!
Добавить

Торрент скачать бесплатно

» » Губка Боб Квадратные Штаны / SpongeBob SquarePants (2016) WEB-DL [H.264 / 1080p-LQ] (Сезон 10, серии 01-11 из 11) торрент скачать бесплатно




    Губка Боб Квадратные Штаны / SpongeBob SquarePants (2016) WEB-DL [H.264 / 1080p-LQ] (Сезон 10, серии 01-11 из 11) торрент скачать бесплатно

    Опубликовал: Админ | Дата: 20-11-2017, 05:00 | Просмотров: 0

    Производство: США
    Жанр: Рисованная анимация, Комедия
    Режиссер: Винсент Уоллер, Дэйв Каннингэм, Шерм Коэн, Пол Тиббит, Уолт Дорн, Аарон Спринджер, Марк Осборн, Марк Кабальеро, Симус Уолш, Алан Смарт

    Описание

    Население подводного городка Бикини Боттом составляют разные морские обитатели. Среди них — лучший друг Спанч Боба, морская звезда по имени Патрик, раздражительный надменный кальмар Сквидвард и белка по имени Сэнди, которая тоже живёт под водой, используя гидрокостюм. Спанч Боб работает поваром в закусочной Красти Краб, которая управляется старым скрягой мистером Крабсом.

    Возраст: 12+ (зрителям, достигшим 12 лет)
    Рейтинг MPAA: PG (рекомендуется присутствие родителей)
    Дата мировой премьеры: 30.04.1999
    Дата российской премьеры: 08.04.2012
    Дата выхода DVD/Blu-ray релиза: 08.04.2012
    Продолжительность: 11 серий по ~ 00: 11: 00
    Качество видео: WEB-DL
    Перевод: Полный дубляж, вкл. песни
    Субтитры: Английские
    Видео: AVC/H.264, 1916x1076, ~5000 Kbps
    Аудио 1: AC3, 2 ch, 192 Kbps Русский
    Аудио 2: AC3, 2 ch, 192 Kbps Английский

    Общее
    Уникальный идентификатор : 246040637316200462667275427377878257709 (0xB919B3FDFD98048EB7099C8FFA25D02D)
    Полное имя : G: SpongeBob SquarePants 10 1080pS10E01ab - Whirlybrains - MermaidPants 1080p WEB-DL.mkv
    Формат : Matroska
    Версия формата : Version 4/Version 2
    Размер файла : 922 Мбайт
    Продолжительность : 23 м.
    Общий поток : 5453 Кбит/сек
    Дата кодирования : UTC 2017-03-11 06: 03: 45
    Программа кодирования : mkvmerge v8.8.0 (\'Wind at my back\') 64bit
    Библиотека кодирования : libebml v1.3.3 + libmatroska v1.4.4
    Видео
    Идентификатор : 1
    Формат : AVC
    Формат/Информация : Advanced Video Codec
    Профиль формата : High@L4
    Параметр CABAC формата : Да
    Параметр ReFrames формата : 4 кадра
    Идентификатор кодека : V_MPEG4/ISO/AVC
    Продолжительность : 23 м.
    Битрейт : 5067 Кбит/сек
    Ширина : 1916 пикселей
    Высота : 1076 пикселей
    Соотношение сторон : 16: 9
    Режим частоты кадров : Постоянный
    Частота кадров : 23, 976 (24000/1001) кадра/сек
    Цветовое пространство : YUV
    Субдискретизация насыщенности : 4: 2: 0
    Битовая глубина : 8 бит
    Тип развёртки : Прогрессивная
    Бит/(Пиксели*Кадры) : 0.103
    Размер потока : 857 Мбайт (93%)
    Язык : English
    Default : Да
    Forced : Нет
    Цветовой диапазон : Limited
    Основные цвета : BT.709
    Характеристики трансфера : BT.709
    Коэффициенты матрицы : BT.709
    Аудио #1
    Идентификатор : 2
    Формат : AC-3
    Формат/Информация : Audio Coding 3
    Расширение режима : CM (complete main)
    Параметр Endianness формата : Big
    Идентификатор кодека : A_AC3
    Продолжительность : 23 м.
    Вид битрейта : Постоянный
    Битрейт : 192 Кбит/сек
    Каналы : 2 канала
    Расположение каналов : Front: L R
    Частота : 48, 0 КГц
    Частота кадров : 31, 250 кадров/сек (1536 spf)
    Метод сжатия : С потерями
    Размер потока : 32, 5 Мбайт (4%)
    Язык : Russian
    Default : Да
    Forced : Нет
    Аудио #2
    Идентификатор : 3
    Формат : AC-3
    Формат/Информация : Audio Coding 3
    Расширение режима : CM (complete main)
    Параметр Endianness формата : Big
    Идентификатор кодека : A_AC3
    Продолжительность : 23 м.
    Вид битрейта : Постоянный
    Битрейт : 192 Кбит/сек
    Каналы : 2 канала
    Расположение каналов : Front: L R
    Частота : 48, 0 КГц
    Частота кадров : 31, 250 кадров/сек (1536 spf)
    Метод сжатия : С потерями
    Размер потока : 32, 5 Мбайт (4%)
    Язык : English
    Default : Нет
    Forced : Нет
    Текст
    Идентификатор : 4
    Формат : UTF-8
    Идентификатор кодека : S_TEXT/UTF8
    Идентификатор кодека/Информация : UTF-8 Plain Text
    Продолжительность : 22 м.
    Битрейт : 86 бит/сек
    Count of elements : 518
    Размер потока : 14, 3 Кбайт (0%)
    Язык : English
    Default : Нет
    Forced : Нет


    Онлайн видео Губка Боб Квадратные Штаны



    Губка Боб Квадратные Штаны/SpongeBob SquarePants (2016) WEB-DL [H.264/1080p-LQ] (Сезон 10, серии 01-11 из 11)
    загрузка...
    Рейтинг →
     (голосов: 1, оценка 3/5, голосовать можно 1 раз )

    Другие торренты по теме:

  • Губка Боб - квадратные штаны / The SpongeBob SquarePants Movie (2004) BDRip [H.264 / 720p] скачать через торрент бесплатно
  • Губка Боб - квадратные штаны / The SpongeBob SquarePants Movie (2004) BDRip [H.264 / 1080p] скачать через торрент бесплатно
  • Губка Боб - квадратные штаны / The SpongeBob SquarePants Movie (2004) BDRip скачать через торрент бесплатно
  • Губка Боб Квадратные Штаны / SpongeBob SquarePants (1999-2012) DVDrip + SATrip + TVRip (9 сезонов + полнометражный мультфильм + документальный фильм)


    • Комментарии (0):

      Информация

      Информация

        Посетители, находящиеся в группе Гости, не могут оставлять комментарии в данной новости.

        ↓ Меню




        ↓ Опрос

        Вы добавили сайт в закладки?
        Да
        Нет


        Top 10 за месяц (Мультфильмы)