.
Авторизация | Регистрация
Хочешь лучшие торренты? Добавь свой email!
Добавить

Торрент скачать бесплатно

» » Тачки 3 / Cars 3 (2017) BDRemux [H.264 / 1080p] торрент скачать бесплатно




    Тачки 3 / Cars 3 (2017) BDRemux [H.264 / 1080p] торрент скачать бесплатно

    Опубликовал: Админ | Дата: 19-11-2017, 05:00 | Просмотров: 0

    Производство: США, Walt Disney Pictures, Pixar Animation Studios
    Жанр: Комедия, приключения, семейный, спорт
    Режиссер: Джон Лассетер, Джо Рэнфт
    Продюсер: Джон Лассетер, Кевин Реэр, Андреа Уоррен

    Актеры
    Оуэн Уилсон, Пол Ньюман, Бонни Хант, Ларри Кейбл Гай, Чич Марин, Тони Шэлоуб, Гуидо Куарони, Дженифер Льюис, Пол Дули, Майкл Уоллис

    Описание

    Встречайте самого знаменитого гонщика всех времен, легенду гоночного трека Молнию Маккуина!
    Герой все еще продолжает показывать лучшие результаты на всех турнирах, однако победы даются ему не так легко, а конкуренция становится все жестче. Молнию Маккуина ждут захватывающие приключения, где он встретит новых друзей, а также поймет, что не только скорость и мощность мотора делают гонщика чемпионом.

    Возраст: 6+ (зрителям, достигшим 6 лет)
    Рейтинг MPAA: G (нет возрастных ограничений)
    Дата мировой премьеры: 10 июня 2017
    Дата российской премьеры: 15 июня 2017, WDSSPR

    Релиз от: MR Sergei
    Продолжительность: 01: 42: 25
    Качество видео: BDRemux 1080p
    Перевод: Дублированный (Лицензия)
    Субтитры: Русские (Forced, Full, Commentary), украинские (Forced), английские (Full, SDH, SDH-Coored, Commentary)
    Видео: AVC/H.264, 1920x1080 (16: 9), 21637 kbps, 23.976 fps
    Аудио #1: AC-3, 5.1, 48 kHz, 640 kbps | Русский
    Аудио #2: DTS-HD MA, 5.1, 48 kHz, 3768 kbps, 24-bit | Украинский
    Аудио #3: DTS-HD MA, 7.1, 48 kHz, 4415 kbps, 24-bit | Английский

    Общее
    Уникальный идентификатор : 197672699805206657652793469203987133768 (0x94B6608E7E3998F0AEFD6951FD2D7548)
    Полное имя : D: ФильмыTachki.3.2017.BDRemux.1080p.NNMClub.mkv
    Формат : Matroska
    Версия формата : Version 4/Version 2
    Размер файла : 21, 8 Гбайт
    Продолжительность : 1 ч. 42 м.
    Режим общего битрейта : Переменный
    Общий поток : 30, 5 Мбит/сек
    Название фильма : MR Sergei for NoNaMe Club
    Дата кодирования : UTC 2017-11-18 06: 48: 51
    Программа кодирования : mkvmerge v17.0.0 (\'Be Ur Friend\') 64-bit
    Библиотека кодирования : libebml v1.3.5 + libmatroska v1.4.8
    Attachments : Cars-3.jpg
    Видео
    Идентификатор : 1
    Формат : AVC
    Формат/Информация : Advanced Video Codec
    Профиль формата : High@L4.1
    Настройки формата : CABAC/4 Ref Frames
    Параметр CABAC формата : Да
    Параметр RefFrames формата : 4 кадра
    Параметр GOP формата : M=1, N=12
    Идентификатор кодека : V_MPEG4/ISO/AVC
    Продолжительность : 1 ч. 42 м.
    Вид битрейта : Переменный
    Битрейт : 21, 6 Мбит/сек
    Максимальный битрейт : 32, 0 Мбит/сек
    Ширина : 1920 пикселей
    Высота : 1080 пикселей
    Соотношение сторон : 16: 9
    Режим частоты кадров : Постоянный
    Частота кадров : 23, 976 (24000/1001) кадра/сек
    Цветовое пространство : YUV
    Субдискретизация насыщенности : 4: 2: 0
    Битовая глубина : 8 бит
    Тип развёртки : Прогрессивная
    Бит/(Пиксели*Кадры) : 0.435
    Размер потока : 15, 5 Гбайт (71%)
    Язык : English
    Default : Да
    Forced : Нет
    Аудио #1
    Идентификатор : 2
    Формат : AC-3
    Формат/Информация : Audio Coding 3
    Идентификатор кодека : A_AC3
    Продолжительность : 1 ч. 42 м.
    Вид битрейта : Постоянный
    Битрейт : 640 Кбит/сек
    Каналы : 6 каналов
    Расположение каналов : Front: L C R, Side: L R, LFE
    Частота : 48, 0 КГц
    Частота кадров : 31, 250 кадров/сек (1536 SPF)
    Битовая глубина : 16 бит
    Метод сжатия : С потерями
    Размер потока : 469 Мбайт (2%)
    Заголовок : Dub | AC3 5.1 @ 640 kbps
    Язык : Russian
    ServiceKind/String : Complete Main
    Default : Да
    Forced : Нет
    Аудио #2
    Идентификатор : 3
    Формат : DTS
    Формат/Информация : Digital Theater Systems
    Профиль формата : MA/Core
    Идентификатор кодека : A_DTS
    Продолжительность : 1 ч. 42 м.
    Вид битрейта : Переменный/Постоянный
    Битрейт : 3840 Кбит/сек/1509 Кбит/сек
    Каналы : 6 каналов
    Расположение каналов : Front: L C R, Side: L R, LFE
    Частота : 48, 0 КГц
    Частота кадров : 93, 750 кадра/сек (512 SPF)
    Битовая глубина : 24 бит
    Метод сжатия : Без потерь/Lossy
    Задержка видео : 35 мс.
    Размер потока : 2, 70 Гбайт (12%)
    Заголовок : Dub | DTS-HD MA 5.1 @ 3768 kbps
    Язык : Ukrainian
    Default : Нет
    Forced : Нет
    Аудио #3
    Идентификатор : 4
    Формат : DTS
    Формат/Информация : Digital Theater Systems
    Профиль формата : MA/Core
    Идентификатор кодека : A_DTS
    Продолжительность : 1 ч. 42 м.
    Вид битрейта : Переменный/Постоянный
    Битрейт : 4415 Кбит/сек/1509 Кбит/сек
    Каналы : 8 каналов/6 каналов
    Расположение каналов : Front: L C R, Side: L R, Back: L R, LFE/Front: L C R, Side: L R, LFE
    Частота : 48, 0 КГц
    Частота кадров : 93, 750 кадра/сек (512 SPF)
    Битовая глубина : 24 бит
    Метод сжатия : Без потерь/Lossy
    Размер потока : 3, 16 Гбайт (14%)
    Заголовок : Original | DTS-HD MA 7.1 @ 4415 kbps
    Язык : English
    Default : Нет
    Forced : Нет
    Текст #1
    Идентификатор : 5
    Формат : UTF-8
    Идентификатор кодека : S_TEXT/UTF8
    Идентификатор кодека/Информация : UTF-8 Plain Text
    Продолжительность : 1 ч. 39 м.
    Битрейт : 0 бит/сек
    ElementCount : 9
    Размер потока : 331 байт (0%)
    Заголовок : Forced
    Язык : Russian
    Default : Да
    Forced : Нет
    Текст #2
    Идентификатор : 6
    Формат : UTF-8
    Идентификатор кодека : S_TEXT/UTF8
    Идентификатор кодека/Информация : UTF-8 Plain Text
    Продолжительность : 1 ч. 40 м.
    Битрейт : 111 бит/сек
    ElementCount : 1423
    Размер потока : 82, 6 Кбайт (0%)
    Заголовок : Full
    Язык : Russian
    Default : Нет
    Forced : Нет
    Текст #3
    Идентификатор : 7
    Формат : UTF-8
    Идентификатор кодека : S_TEXT/UTF8
    Идентификатор кодека/Информация : UTF-8 Plain Text
    Продолжительность : 1 ч. 41 м.
    Битрейт : 161 бит/сек
    ElementCount : 1967
    Размер потока : 120 Кбайт (0%)
    Заголовок : Commentary
    Язык : Russian
    Default : Нет
    Forced : Нет
    Текст #4
    Идентификатор : 8
    Формат : UTF-8
    Идентификатор кодека : S_TEXT/UTF8
    Идентификатор кодека/Информация : UTF-8 Plain Text
    Продолжительность : 1 ч. 30 м.
    Битрейт : 0 бит/сек
    ElementCount : 13
    Размер потока : 656 байт (0%)
    Заголовок : Forced
    Язык : Ukrainian
    Default : Нет
    Forced : Нет
    Текст #5
    Идентификатор : 9
    Формат : UTF-8
    Идентификатор кодека : S_TEXT/UTF8
    Идентификатор кодека/Информация : UTF-8 Plain Text
    Продолжительность : 1 ч. 40 м.
    Битрейт : 79 бит/сек
    ElementCount : 1425
    Размер потока : 59, 0 Кбайт (0%)
    Заголовок : Full
    Язык : English
    Default : Нет
    Forced : Нет
    Текст #6
    Идентификатор : 10
    Формат : UTF-8
    Идентификатор кодека : S_TEXT/UTF8
    Идентификатор кодека/Информация : UTF-8 Plain Text
    Продолжительность : 1 ч. 40 м.
    Битрейт : 87 бит/сек
    ElementCount : 2107
    Размер потока : 64, 4 Кбайт (0%)
    Заголовок : SDH
    Язык : English
    Default : Нет
    Forced : Нет
    Текст #7
    Идентификатор : 11
    Формат : UTF-8
    Идентификатор кодека : S_TEXT/UTF8
    Идентификатор кодека/Информация : UTF-8 Plain Text
    Продолжительность : 1 ч. 40 м.
    Битрейт : 115 бит/сек
    ElementCount : 2107
    Размер потока : 85, 4 Кбайт (0%)
    Заголовок : SDH-Colored
    Язык : English
    Default : Нет
    Forced : Нет
    Текст #8
    Идентификатор : 12
    Формат : UTF-8
    Идентификатор кодека : S_TEXT/UTF8
    Идентификатор кодека/Информация : UTF-8 Plain Text
    Продолжительность : 1 ч. 41 м.
    Битрейт : 120 бит/сек
    ElementCount : 1967
    Размер потока : 89, 8 Кбайт (0%)
    Заголовок : Commentary
    Язык : English
    Default : Нет
    Forced : Нет
    Текст #9
    Идентификатор : 13
    Формат : UTF-8
    Идентификатор кодека : S_TEXT/UTF8
    Идентификатор кодека/Информация : UTF-8 Plain Text
    Продолжительность : 1 ч. 41 м.
    Битрейт : 124 бит/сек
    ElementCount : 2002
    Размер потока : 92, 8 Кбайт (0%)
    Заголовок : Commentary
    Язык : English
    Default : Нет
    Forced : Нет
    Меню
    00: 00: 00.000 : : Champ McQueen
    00: 04: 57.255 : : Storm Front
    00: 10: 54.988 : : Crash
    00: 13: 59.422 : : Wake-up Call
    00: 18: 15.344 : : Phone Call
    00: 21: 07.641 : : Modern Training
    00: 34: 08.880 : : Deal
    00: 37: 52.103 : : Beach
    00: 42: 44.812 : : Crazy Eight
    00: 49: 44.398 : : Cruz\'s Dream
    00: 53: 57.734 : : Facetime
    00: 58: 17.702 : : Olive Branch
    00: 59: 27.522 : : Smokey
    01: 02: 15.940 : : Hud\'s Win
    01: 06: 35.533 : : It\'s Over
    01: 08: 33.109 : : Old School Training
    01: 15: 48.126 : : Florida Arrival
    01: 20: 57.852 : : Pit Stop
    01: 29: 42.418 : : Victory Lane
    01: 32: 17.031 : : Epilogue
    01: 34: 00.092 : : End Credits

    File: D: ФильмыTachki.3.2017.BDRemux.1080p.NNMClub.mkv
    Duration: 01: 42: 25 (6145.09)
    Track #1: video
    lang: Unknown (1)
    codc: V_MPEG4/ISO/AVC - H264/AVC (22)
    reso: 1920x1080 - 16: 9
    fram: 23.976 fps
    rate: 21637 kbps (21637.5)
    dura: 01: 42: 25 (6144.97)
    size: 15.48 GB (16620192561)
    Track #2: audio (Dub | AC3 5.1 @ 640 kbps)
    lang: rus - Russian (15)
    codc: A_AC3 - AC3 (2)
    chan: 6 - 5.1 Surround
    samp: 48000 Hz
    rate: 640 kbps (640.04)
    dura: 01: 42: 25 (6145.06)
    size: 468.86 MB (491637691)
    Track #3: audio (Dub | DTS-HD MA 5.1 @ 3768 kbps)
    lang: ukr - Unknown (1)
    codc: A_DTS - DTS (13)
    chan: 6 - 5.1 Surround
    samp: 48000 Hz
    rate: 3769 kbps (3769.24)
    dura: 01: 42: 25 (6144.92)
    size: 2.70 GB (2895208192)
    Track #4: audio (Original | DTS-HD MA 7.1 @ 4415 kbps)
    lang: Unknown (1)
    codc: A_DTS - DTS (13)
    chan: 8 - 7.1 Surround
    samp: 48000 Hz
    rate: 4416 kbps (4415.91)
    dura: 01: 42: 25 (6144.95)
    size: 3.16 GB (3391942584)
    Track #5: subtitles (Forced)
    lang: rus - Russian (15)
    type: S_TEXT/UTF8 - SRT (3)
    size: 331.00 B (331)
    Track #6: subtitles (Full)
    lang: rus - Russian (15)
    type: S_TEXT/UTF8 - SRT (3)
    size: 82.61 KB (84597)
    Track #7: subtitles (Commentary)
    lang: rus - Russian (15)
    type: S_TEXT/UTF8 - SRT (3)
    size: 120.25 KB (123131)
    Track #8: subtitles (Forced)
    lang: ukr - Unknown (1)
    type: S_TEXT/UTF8 - SRT (3)
    size: 656.00 B (656)
    Track #9: subtitles (Full)
    lang: Unknown (1)
    type: S_TEXT/UTF8 - SRT (3)
    size: 59.02 KB (60436)
    Track #10: subtitles (SDH)
    lang: Unknown (1)
    type: S_TEXT/UTF8 - SRT (3)
    size: 64.41 KB (65955)
    Track #11: subtitles (SDH-Colored)
    lang: Unknown (1)
    type: S_TEXT/UTF8 - SRT (3)
    size: 85.40 KB (87451)
    Track #12: subtitles (Commentary)
    lang: Unknown (1)
    type: S_TEXT/UTF8 - SRT (3)
    size: 89.84 KB (91998)
    Track #13: subtitles (Commentary)
    lang: Unknown (1)
    type: S_TEXT/UTF8 - SRT (3)
    size: 92.84 KB (95064)
    Sizes: (check sanity)
    disk: 21.80 GB (23403589465)
    atts: 398.62 KB (408183)
    trac: 9.79 GB (10514688759) based on track size
    bitr: 21.79 GB (23399012850) based on bitrate
    tdif: 12.00 GB (12888492523) 55.07%
    bdif: 3.98 MB (4168431) 0.01%

    Скриншоты для ознакомления


    Все одноименные релизы в Клубе
    Время раздачи: 24/7 (до появления первых 3-5 скачавших)


    Онлайн видео Тачки 3



    Тачки 3/Cars 3 (2017) BDRemux [H.264/1080p]
    загрузка...
    Рейтинг →
     (голосов: 1, оценка 4/5, голосовать можно 1 раз )

    Другие торренты по теме:

  • Тачки / Cars (2006) BDRip [720p]
  • Тачки / Cars (2006) BDRip [1080p] ATV2 скачать через торрент бесплатно
  • Тачки / Cars (2006) WEB-DL [H.264 / 1080p-LQ] [open matte]
  • Тачки / Cars (2006) BDRip [H.265 / 1080p-LQ]
  • Cars 2 / Тачки 2 [PS3] [EUR] [Ru] [3.55] [Cobra ODE / E3 ODE PRO ISO] (2011)
  • Тачки 2 / Cars 2 (2011) BDRip [1080p] ATV
  • Тачки 2 / Cars 2 (2011) BDRip [720p] ATV
  • Cars 2 / Тачки 2 (2011) [Wii] [PAL] [Ru] скачать через торрент бесплатно


    • Комментарии (0):

      Информация

      Информация

        Посетители, находящиеся в группе Гости, не могут оставлять комментарии в данной новости.

        ↓ Меню




        ↓ Опрос

        Вы добавили сайт в закладки?
        Да
        Нет


        Top 10 за месяц (Мультфильмы)